<?xml version="1.0" standalone="no"?>
<!DOCTYPE svg PUBLIC "-//W3C//DTD SVG 1.1//EN" "http://www.w3.org/Graphics/SVG/1.1/DTD/svg11.dtd" >
<svg>
<metadata>
Created by FontForge 20090622 at Sun Mar  6 21:30:12 2016
 By deploy user
Part of the digitally encoded machine readable outline data for producing the Typefaces provided is copyrighted (c) 1987, 1991, 1998, 2003 Linotype Library GmbH, www.linotype.com. All rights reserved. This software is the property of Linotype Library GmbH, and may not be reproduced, used, displayed, modified, disclosed or transferred without the express written approval of Linotype Library GmbH. Copyright (c) 1987, 1991 Adobe Systems Incorporated. All rights reserved.
</metadata>
<defs>
<font id="UniversLT-Light" horiz-adv-x="556" >
  <font-face 
    font-family="Univers LT 45 Light"
    font-weight="300"
    font-stretch="normal"
    units-per-em="1000"
    panose-1="2 0 4 3 3 0 0 2 0 3"
    ascent="800"
    descent="-200"
    x-height="502"
    cap-height="725"
    bbox="-151 -250 1000 957"
    underline-thickness="50"
    underline-position="-75"
    unicode-range="U+0001-U+FB02"
  />
<missing-glyph horiz-adv-x="500" 
d="M442 8v496h-384v-496h384zM50 512h400v-512h-400v512z" />
    <glyph glyph-name=".notdef" horiz-adv-x="500" 
d="M442 8v496h-384v-496h384zM50 512h400v-512h-400v512z" />
    <glyph glyph-name="exclam" unicode="!" horiz-adv-x="389" 
d="M235 86v-86h-80v86h80zM167 171l-13 551h82l-13 -551h-56z" />
    <glyph glyph-name="quotedbl" unicode="&#x22;" horiz-adv-x="278" 
d="M168 722h52v-226h-52v226zM58 722h52v-226h-52v226z" />
    <glyph glyph-name="numbersign" unicode="#" 
d="M527 423h-107l-20 -137h101v-60h-110l-31 -226h-59l31 226h-136l-34 -226h-58l34 226h-109v60h118l20 137h-111v60h119l32 209h59l-31 -209h135l30 209h59l-31 -209h99v-60zM226 423l-22 -137h137l20 137h-135z" />
    <glyph glyph-name="dollar" unicode="$" 
d="M251 647q-24 0 -47 -9.5t-40.5 -26.5t-28 -41t-10.5 -54q0 -29 11 -50t29 -35.5t40.5 -24.5t45.5 -17v258zM301 -68h-50v53q-39 1 -77.5 12.5t-68.5 35t-47.5 59t-15.5 84.5h70q-2 -33 8.5 -57t30 -40t45.5 -24t55 -10v275q-20 8 -53 19t-64.5 31.5t-55 54.5t-23.5 90
q0 40 17.5 75t45.5 61t63 41t70 15v48h50v-48q37 0 72 -11.5t63 -33.5t46 -55t21 -75h-70q0 32 -12.5 54t-31.5 35.5t-42.5 20t-45.5 7.5v-275q39 -12 77.5 -26t68.5 -35.5t49 -54.5t19 -84q0 -49 -18.5 -84.5t-49 -59t-69 -34.5t-77.5 -11v-53zM301 45q26 2 51.5 11
t46 25.5t33.5 40t13 54.5q0 33 -13.5 54.5t-34.5 36t-46.5 24l-49.5 18.5v-264z" />
    <glyph glyph-name="percent" unicode="%" horiz-adv-x="1000" 
d="M723 318q-29 0 -49 -13.5t-32 -34.5t-17.5 -46.5t-5.5 -49.5t5.5 -49.5t17.5 -46.5t32 -34.5t49 -13.5t49 13.5t32 34.5t17.5 46.5t5.5 49.5t-5.5 49.5t-17.5 46.5t-32 34.5t-49 13.5zM723 363q38 0 67.5 -15.5t50 -42t31 -60.5t10.5 -71t-10.5 -71t-31 -60.5t-50 -42
t-67.5 -15.5t-67.5 15.5t-50 42t-31 60.5t-10.5 71t10.5 71t31 60.5t50 42t67.5 15.5zM277 707q38 0 67.5 -15.5t50 -42t31 -60.5t10.5 -71t-10.5 -71t-31 -60.5t-50 -42t-67.5 -15.5t-67.5 15.5t-50 42t-31 60.5t-10.5 71t10.5 71t31 60.5t50 42t67.5 15.5zM711 707
l-390 -707h-58l390 707h58zM277 662q-29 0 -49 -13.5t-32 -34.5t-17.5 -46.5t-5.5 -49.5t5.5 -49.5t17.5 -46.5t32 -34.5t49 -13.5t49 13.5t32 34.5t17.5 46.5t5.5 49.5t-5.5 49.5t-17.5 46.5t-32 34.5t-49 13.5z" />
    <glyph glyph-name="ampersand" unicode="&#x26;" horiz-adv-x="722" 
d="M230 422q1 2 2 2.5t2 1.5q-17 19 -33.5 39.5t-30.5 42.5t-22.5 46.5t-8.5 51.5q0 33 13.5 58t36 41t50.5 24t58 8q29 0 58 -7.5t52 -23t37 -40t14 -57.5q0 -32 -12 -59t-30.5 -50t-42 -43t-47.5 -38l211 -225q12 28 21.5 62t15.5 69.5t8 70.5t1 65h70l-8 -80t-11.5 -80.5
t-19.5 -78t-33 -73.5l137 -149h-93l-86 96q-45 -54 -98 -82.5t-123 -28.5q-55 0 -103 14.5t-84 42.5t-56.5 67t-20.5 89q0 41 16 73.5t41.5 59.5t57 49zM287 461q15 15 33 30.5t33 33t25 37t10 43.5q0 37 -27.5 54.5t-60.5 17.5q-18 0 -34 -4t-29 -12.5t-20.5 -22.5
t-7.5 -33q0 -20 7.5 -39.5t19 -38.5t25.5 -36t26 -30zM275 381q-18 -12 -44 -31t-49.5 -41.5t-40.5 -47.5t-17 -49q0 -39 15.5 -70t42 -52.5t60.5 -33t70 -11.5q61 0 104.5 25t84.5 68z" />
    <glyph glyph-name="quoteright" unicode="&#x2019;" horiz-adv-x="278" 
d="M205 722l-72 -205h-52l43 205h81z" />
    <glyph glyph-name="parenleft" unicode="(" horiz-adv-x="278" 
d="M183 -96l-37 99t-34.5 101t-25.5 103t-10 106q0 53 9.5 105t25 103.5t35 101.5l38.5 99h50q-40 -102 -64 -207t-24 -202q0 -51 7.5 -105t19.5 -106.5t28 -103t33 -94.5h-51z" />
    <glyph glyph-name="parenright" unicode=")" horiz-adv-x="278" 
d="M44 -96q17 44 33 94.5t28 103t19.5 106.5t7.5 105q0 97 -24 202t-64 207h50l38.5 -99t35 -101.5t25 -103.5t9.5 -105q0 -54 -10 -106t-25.5 -103t-34.5 -101l-37 -99h-51z" />
    <glyph glyph-name="asterisk" unicode="*" 
d="M279 586l67 136l51 -28l-88 -127l143 12v-58l-142 11l86 -129l-52 -27l-65 138l-68 -140l-50 29l87 128l-144 -10v58l145 -12l-91 126l53 29z" />
    <glyph glyph-name="plus" unicode="+" horiz-adv-x="660" 
d="M300 502h60v-221h220v-60h-220v-221h-60v221h-220v60h220v221z" />
    <glyph glyph-name="comma" unicode="," horiz-adv-x="278" 
d="M183 81l-72 -205h-52l43 205h81z" />
    <glyph glyph-name="hyphen" unicode="-" horiz-adv-x="278" 
d="M13 297h252v-60h-252v60z" />
    <glyph glyph-name="hyphen" unicode="&#x2010;" horiz-adv-x="278" 
d="M13 297h252v-60h-252v60z" />
    <glyph glyph-name="hyphen" unicode="&#xad;" horiz-adv-x="278" 
d="M13 297h252v-60h-252v60z" />
    <glyph glyph-name="period" unicode="." horiz-adv-x="278" 
d="M99 0v86h80v-86h-80z" />
    <glyph glyph-name="slash" unicode="/" horiz-adv-x="278" 
d="M236 722h65l-261 -818h-63z" />
    <glyph glyph-name="zero" unicode="0" 
d="M278 707q71 0 115.5 -31.5t70 -83t35 -116t9.5 -130.5t-9.5 -130.5t-35 -116t-70 -83t-115.5 -31.5t-115.5 31.5t-70 83t-35 116t-9.5 130.5t9.5 130.5t35 116t70 83t115.5 31.5zM278 647q-55 0 -87 -32.5t-48 -79.5t-20.5 -98.5t-4.5 -90.5t4.5 -90.5t20.5 -98.5
t48 -79.5t87 -32.5t87 32.5t48 79.5t20.5 98.5t4.5 90.5t-4.5 90.5t-20.5 98.5t-48 79.5t-87 32.5z" />
    <glyph glyph-name="one" unicode="1" 
d="M116 583q45 18 85 46.5t74 62.5h62v-692h-65v622q-35 -33 -74.5 -58.5t-81.5 -45.5v65z" />
    <glyph glyph-name="two" unicode="2" 
d="M50 0v68l57.5 53t75 73.5l79.5 85.5t72 89t52 84t20 71q0 30 -11 53t-30 38.5t-44.5 23.5t-53.5 8q-31 0 -57 -10t-44.5 -28.5t-28.5 -44t-10 -55.5h-70q0 46 16 82.5t44.5 62t67.5 39.5t84 14q42 0 79.5 -11t66 -33.5t45 -56t16.5 -78.5q0 -40 -18.5 -83.5t-48 -87
t-67.5 -85.5t-76.5 -80.5l-74.5 -72l-63 -59.5h357v-60h-435z" />
    <glyph glyph-name="three" unicode="3" 
d="M225 392q33 -4 67 1.5t61.5 21t45 42t17.5 65.5q0 30 -12.5 53.5t-33.5 39t-49 24t-58 8.5q-66 0 -105 -33t-46 -93h-70q0 44 18 78.5t47.5 58.5t67.5 36.5t79 12.5q44 0 85.5 -10.5t74 -33.5t52.5 -59t20 -86q0 -32 -11 -58t-30.5 -45.5t-45 -33t-54.5 -19.5v-2
q33 -7 61 -22t48 -37.5t31.5 -51.5t11.5 -64q0 -49 -20.5 -86t-54.5 -62.5t-76.5 -38.5t-85.5 -13q-46 0 -86.5 12.5t-71.5 37t-50 61.5t-20 87h70q0 -32 13.5 -57.5t35.5 -43.5t50 -27.5t58 -9.5q34 0 65 9t53.5 27.5t36 46.5t13.5 65q0 42 -18 70t-47 44.5t-65 21.5t-72 0
v63z" />
    <glyph glyph-name="four" unicode="4" 
d="M347 627h-2l-268 -412h270v412zM347 161h-325v63l304 468h86v-477h111v-54h-111v-161h-65v161z" />
    <glyph glyph-name="five" unicode="5" 
d="M92 692h381v-60h-319l-11 -247l2 -2q29 34 67 53.5t85 19.5q49 0 88 -18.5t66.5 -50.5t42 -74t14.5 -88q0 -50 -15.5 -93.5t-44 -76t-70 -51.5t-92.5 -19q-44 0 -84 10.5t-70.5 33t-49.5 57.5t-20 84h70q1 -31 13.5 -54.5t32 -39t45.5 -23.5t56 -8q40 0 70 14.5t50 39.5
t29.5 58t9.5 71q0 75 -38.5 121.5t-116.5 46.5q-50 0 -89.5 -28t-50.5 -77h-67z" />
    <glyph glyph-name="six" unicode="6" 
d="M297 707q42 0 79 -11t65 -32.5t44 -55t17 -78.5h-70q-1 27 -12 48.5t-28.5 37t-41 23.5t-50.5 8q-62 0 -99 -30.5t-56 -76.5t-24.5 -100.5t-5.5 -103.5h2q23 57 72 85t110 28q51 0 90.5 -17t66.5 -48t41 -73t14 -91q0 -50 -15 -92.5t-43 -74.5t-68.5 -50t-91.5 -18
q-72 0 -120 27.5t-76.5 73t-40 104.5t-11.5 121q0 44 3 90.5t12.5 90.5t26.5 83t45 68.5t68.5 46.5t96.5 17zM296 394q-41 0 -72.5 -14t-53 -39t-32.5 -58t-11 -72q0 -33 11.5 -63t32.5 -53t49.5 -36.5t62.5 -13.5q38 0 67.5 13t49.5 36t30.5 54t10.5 68q0 34 -8 66
t-25.5 57t-45 40t-66.5 15z" />
    <glyph glyph-name="seven" unicode="7" 
d="M492 634l-269 -634h-76l277 632h-373v60h441v-58z" />
    <glyph glyph-name="eight" unicode="8" 
d="M113 188q0 -37 13.5 -64t36.5 -44.5t53 -26t62 -8.5t62 8.5t53 26t36.5 44.5t13.5 64t-13.5 64t-36.5 44.5t-53 26t-62 8.5t-62 -8.5t-53 -26t-36.5 -44.5t-13.5 -64zM118 521q0 -65 45.5 -97.5t114.5 -32.5t114.5 32.5t45.5 97.5q0 35 -14 60t-37 40.5t-51.5 23
t-57.5 7.5t-57.5 -7.5t-51.5 -23t-37 -40.5t-14 -60zM194 361q-30 3 -56 17t-45 35.5t-29.5 49t-10.5 58.5q0 48 19.5 83t51.5 58t72 34t82 11t82 -11t72 -34t51.5 -58t19.5 -83q0 -32 -10.5 -58t-29.5 -46.5t-44 -34.5t-55 -21v-1q69 -18 109 -60.5t40 -111.5
q0 -53 -20.5 -91t-53.5 -63t-75.5 -37t-85.5 -12q-44 0 -86 12t-75 37t-53.5 63t-20.5 91q0 33 10.5 61.5t30.5 50.5t48 37t62 22v2z" />
    <glyph glyph-name="nine" unicode="9" 
d="M117 170q1 -34 12.5 -58t31.5 -39t47 -21.5t59 -6.5q39 0 67.5 17t48 44.5t31 62.5t18 71.5t8.5 71t2 60.5h-2q-26 -51 -74.5 -78.5t-108.5 -27.5q-47 0 -86 16t-67 45t-43.5 68t-15.5 86q0 49 15.5 90.5t44.5 71.5t70 47t91 17q75 0 123 -29.5t75.5 -77.5t37.5 -109.5
t10 -125.5q0 -70 -10 -138t-38.5 -122t-80 -87t-134.5 -33q-93 0 -144 51t-58 134h70zM267 647q-39 0 -67.5 -13t-47 -36.5t-28 -54.5t-9.5 -67q0 -69 39.5 -112t108.5 -43q36 0 66.5 12t53 34t35 52t12.5 66t-12 65.5t-34 51t-51.5 33.5t-65.5 12z" />
    <glyph glyph-name="colon" unicode=":" horiz-adv-x="278" 
d="M179 86v-86h-80v86h80zM179 502v-86h-80v86h80z" />
    <glyph glyph-name="semicolon" unicode=";" horiz-adv-x="278" 
d="M187 502v-86h-80v86h80zM202 81l-72 -205h-52l43 205h81z" />
    <glyph glyph-name="semicolon" unicode="&#x37e;" horiz-adv-x="278" 
d="M187 502v-86h-80v86h80zM202 81l-72 -205h-52l43 205h81z" />
    <glyph glyph-name="less" unicode="&#x3c;" horiz-adv-x="660" 
d="M580 54v-64l-500 235v53l500 223v-64l-421 -186z" />
    <glyph glyph-name="equal" unicode="=" horiz-adv-x="660" 
d="M580 124h-500v60h500v-60zM580 318h-500v60h500v-60z" />
    <glyph glyph-name="greater" unicode="&#x3e;" horiz-adv-x="660" 
d="M80 448v64l500 -235v-53l-500 -223v64l421 186z" />
    <glyph glyph-name="question" unicode="?" horiz-adv-x="500" 
d="M244 86v-86h-80v86h80zM174 169v108q1 24 15 45t34.5 41.5t44.5 41.5t44.5 44t34 49t13.5 58q0 35 -14 58.5t-36.5 37.5t-51.5 19.5t-60 5.5q-24 0 -47.5 -4t-46.5 -11v61q27 8 54.5 11t55.5 3q42 0 80.5 -11t67.5 -33t46 -55.5t17 -79.5q0 -32 -8 -56.5t-22.5 -46
t-33 -41t-39.5 -39.5q-27 -28 -44.5 -44.5t-28 -29.5t-14 -26.5t-1.5 -35.5v-70h-60z" />
    <glyph glyph-name="at" unicode="@" horiz-adv-x="800" 
d="M554 566h66l-100 -300q-6 -17 -9.5 -31t-2.5 -24t7.5 -16t21.5 -6q31 0 59 22.5t50 57t35 76.5t13 82q0 60 -22.5 108.5t-61 82t-89.5 51.5t-107 18q-69 0 -126.5 -26.5t-99.5 -71.5t-65 -105t-23 -127t24 -126t66.5 -102.5t100.5 -68.5t125 -25q77 0 147.5 35t115.5 100
h58q-23 -43 -58 -77.5t-77 -58.5t-89.5 -36.5t-96.5 -12.5q-80 0 -148.5 30t-119 81.5t-79.5 120.5t-29 147q0 77 29.5 145t80.5 118.5t118.5 80t143.5 29.5q71 0 133.5 -23.5t109 -65t73 -99t26.5 -125.5q0 -59 -21 -111.5t-54.5 -92.5t-74.5 -63t-81 -23q-26 0 -51.5 12.5
t-33.5 39.5q-23 -23 -55 -36.5t-64 -13.5t-57.5 11.5t-43 32t-27 47.5t-9.5 58q0 50 18 103t50 97t77.5 72t100.5 28q35 0 65.5 -16.5t45.5 -48.5zM257 290q0 -36 19.5 -65t57.5 -29q34 0 64 28t52 68t35 84.5t13 77.5q0 29 -19 50t-49 21q-40 0 -72 -24t-54.5 -59.5
t-34.5 -76.5t-12 -75z" />
    <glyph glyph-name="A" unicode="A" horiz-adv-x="667" 
d="M9 0l286 722h76l288 -722h-71l-77 195h-359l-76 -195h-67zM488 255l-156 407l-159 -407h315z" />
    <glyph glyph-name="B" unicode="B" horiz-adv-x="667" 
d="M100 0v722l259 -1q40 0 76.5 -12t64 -35t44 -56.5t16.5 -76.5q0 -30 -10.5 -56.5t-28.5 -48t-42.5 -36.5t-52.5 -22v-2q74 -12 119 -58.5t45 -124.5q0 -36 -11.5 -70.5t-37 -61.5t-66.5 -44t-100 -17h-275zM322 404q31 0 61.5 6.5t54 22t38 40.5t14.5 62q0 39 -15 64
t-39 38.5t-54.5 19t-62.5 5.5h-154v-258h157zM165 60h159q46 -1 82.5 5.5t62 23t38.5 44t13 69.5q0 46 -17.5 74t-49 43t-74.5 20t-94 5h-120v-284z" />
    <glyph glyph-name="C" unicode="C" horiz-adv-x="667" 
d="M542 553q-5 33 -20.5 56.5t-38.5 38.5t-51.5 22t-59.5 7q-69 0 -115.5 -28.5t-74.5 -74t-39.5 -102t-11.5 -111.5q0 -56 11.5 -112t39.5 -101.5t74.5 -74t115.5 -28.5q30 0 59 7.5t53 23.5t41.5 40.5t24.5 58.5h70q-8 -45 -31.5 -80.5t-57 -60t-75 -37t-84.5 -12.5
q-82 0 -141 30.5t-96.5 82.5t-55.5 120t-18 143q0 74 18 142t56 120t96.5 83t140.5 31q44 0 85.5 -10.5t74.5 -33t54.5 -57t25.5 -83.5h-70z" />
    <glyph glyph-name="D" unicode="D" horiz-adv-x="722" 
d="M286 722q179 0 275.5 -90.5t96.5 -270.5t-96.5 -270.5t-275.5 -90.5h-195v722h195zM302 60q76 0 130.5 21.5t89 61t50.5 95t16 123.5q0 80 -22.5 138t-65.5 95t-104 53.5t-138 14.5h-102v-602h146z" />
    <glyph glyph-name="E" unicode="E" horiz-adv-x="611" 
d="M102 0v722h429v-60h-364v-259h350v-60h-350v-283h379v-60h-444z" />
    <glyph glyph-name="F" unicode="F" 
d="M95 0v722h408v-60h-343v-255h331v-60h-331v-347h-65z" />
    <glyph glyph-name="G" unicode="G" horiz-adv-x="722" 
d="M631 368v-338q-66 -26 -127.5 -35.5t-131.5 -9.5q-74 0 -131.5 27.5t-96.5 77t-59.5 119t-20.5 152.5q0 70 18.5 137.5t57 120.5t96.5 85.5t136 32.5q45 0 89 -12t79 -36.5t58.5 -60.5t27.5 -84h-74q-5 34 -21.5 59.5t-41 41.5t-55 24t-62.5 8q-65 0 -110 -28.5
t-73.5 -73.5t-41.5 -101.5t-13 -112.5q0 -69 15 -127t48 -100t84.5 -65.5t124.5 -23.5q41 0 81.5 9.5t78.5 20.5v233h-181v60h246z" />
    <glyph glyph-name="H" unicode="H" horiz-adv-x="722" 
d="M99 0v722h65v-317h394v317h65v-722h-65v345h-394v-345h-65z" />
    <glyph glyph-name="I" unicode="I" horiz-adv-x="278" 
d="M107 0v725h65v-725h-65z" />
    <glyph glyph-name="J" unicode="J" horiz-adv-x="500" 
d="M83 178q5 -59 41.5 -96t95.5 -37q34 0 58.5 16t39.5 41.5t22 57.5t7 65v497h65v-487q0 -20 -1 -42.5t-6 -45.5t-15 -46.5t-28 -44.5q-31 -38 -73.5 -54.5t-89.5 -16.5q-44 0 -76.5 15.5t-55 41.5t-36 61.5t-18.5 74.5h70z" />
    <glyph glyph-name="K" unicode="K" horiz-adv-x="611" 
d="M106 0v722h64l1 -318l323 318h82l-333 -326l363 -396h-89l-346 377l-1 -377h-64z" />
    <glyph glyph-name="L" unicode="L" 
d="M100 0v722h65v-662h363v-60h-428z" />
    <glyph glyph-name="M" unicode="M" horiz-adv-x="944" 
d="M97 0v722h104l271 -629l277 629h99v-722h-65v667h-2l-276 -667h-65l-276 664h-2v-664h-65z" />
    <glyph glyph-name="N" unicode="N" horiz-adv-x="722" 
d="M92 722h74l398 -635h2v635h65v-722h-82l-390 624h-2v-624h-65v722z" />
    <glyph glyph-name="O" unicode="O" horiz-adv-x="778" 
d="M711 361q0 -84 -21 -153.5t-62 -119t-101 -76.5t-138 -27t-138 27t-101 76.5t-62 119t-21 153.5t21 153.5t62 119t101 76.5t138 27t138 -27t101 -76.5t62 -119t21 -153.5zM137 361q0 -59 14 -116t44.5 -101.5t78 -71.5t115.5 -27q67 0 115 27t78.5 71.5t44.5 101.5
t14 116t-14 116t-44.5 101.5t-78.5 71.5t-115 27q-68 0 -115.5 -27t-78 -71.5t-44.5 -101.5t-14 -116z" />
    <glyph glyph-name="P" unicode="P" horiz-adv-x="611" 
d="M100 0v722h181q52 1 104.5 -6.5t95 -30t69 -63t26.5 -104.5q0 -65 -26.5 -105t-69 -62.5t-95 -30t-104.5 -6.5h-116v-314h-65zM165 374h158q36 0 69.5 6.5t58.5 23t40 44.5t15 70t-15 70t-40 44.5t-58.5 23t-69.5 6.5h-158v-288z" />
    <glyph glyph-name="Q" unicode="Q" horiz-adv-x="778" 
d="M137 361q0 -59 14 -116t44.5 -101.5t78 -71.5t115.5 -27q67 0 115 27t78.5 71.5t44.5 101.5t14 116t-14 116t-44.5 101.5t-78.5 71.5t-115 27q-68 0 -115.5 -27t-78 -71.5t-44.5 -101.5t-14 -116zM591 0q-12 0 -28 1.5t-33 2t-34.5 0t-32.5 -4.5q-19 -6 -38.5 -10
t-35.5 -4q-78 0 -138 27t-101 76.5t-62 119t-21 153.5t21 153.5t62 119t101 76.5t138 27t138 -27t101 -76.5t62 -119t21 -153.5q0 -44 -8 -87.5t-24 -83.5t-41 -74.5t-59 -60.5l2 -2q38 6 77.5 5.5t79.5 1.5v-60h-147z" />
    <glyph glyph-name="R" unicode="R" horiz-adv-x="667" 
d="M168 0h-65v722h236q47 0 88 -6.5t82 -31.5q38 -23 56 -61t18 -90q0 -59 -38 -99t-101 -56v-2q34 -6 56 -20t35.5 -35t20 -48t9.5 -58q5 -44 7.5 -77t5.5 -58t8.5 -44.5t16.5 -35.5h-75q-13 36 -17.5 74t-7.5 76q-6 62 -12.5 100t-22 59t-44 28t-77.5 7h-179v-344z
M307 404q34 0 70.5 3t66.5 15.5t49.5 38.5t19.5 72q0 52 -21.5 78.5t-52 38t-65 12t-60.5 0.5h-146v-258h139z" />
    <glyph glyph-name="S" unicode="S" horiz-adv-x="611" 
d="M553 190q0 -59 -23.5 -98.5t-62.5 -63t-89.5 -33.5t-104.5 -10q-43 0 -81.5 15t-68 42t-47 64t-18.5 82h70q1 -42 15.5 -69.5t39.5 -44t57.5 -23t68.5 -6.5q30 0 61 9t56 26t41 43t16 61q0 27 -9 47t-24.5 35t-36 25.5t-43.5 18.5q-44 15 -95.5 31t-96 41t-74 63
t-29.5 97q0 47 20 83.5t52.5 61t73.5 37.5t84 13q36 0 74.5 -7.5t72.5 -26.5t58 -52.5t30 -85.5h-70q-1 33 -15 55t-36.5 34.5t-50 17.5t-55.5 5t-58 -7.5t-54.5 -22.5t-40 -39t-15.5 -57q0 -51 30 -80.5t75.5 -49t98.5 -34.5t98.5 -38t75.5 -60t30 -99z" />
    <glyph glyph-name="T" unicode="T" 
d="M247 662h-233v60h528v-60h-229l-1 -662h-64z" />
    <glyph glyph-name="U" unicode="U" horiz-adv-x="722" 
d="M162 722v-467q4 -99 56.5 -154.5t142.5 -55.5t142.5 55.5t56.5 154.5v467h65v-468q-1 -58 -17.5 -107.5t-49.5 -85.5t-82 -56t-115 -20t-115 20t-82 56t-49.5 85.5t-17.5 107.5v468h65z" />
    <glyph glyph-name="V" unicode="V" horiz-adv-x="611" 
d="M309 65h2l229 657h65l-261 -722h-74l-264 722h71z" />
    <glyph glyph-name="W" unicode="W" horiz-adv-x="1000" 
d="M290 0h-92l-188 722h69l168 -657h2l211 657h79l220 -657h2l167 657h63l-190 -722h-89l-213 655h-2z" />
    <glyph glyph-name="X" unicode="X" horiz-adv-x="611" 
d="M82 0h-74l257 372l-244 350h85l204 -304l212 304h73l-250 -350l258 -372h-83l-219 323z" />
    <glyph glyph-name="Y" unicode="Y" horiz-adv-x="611" 
d="M274 312l-266 410h83l221 -349l221 349h70l-264 -408v-314h-65v312z" />
    <glyph glyph-name="Z" unicode="Z" 
d="M39 0v60l401 602h-401v60h478v-60l-402 -602h402v-60h-478z" />
    <glyph glyph-name="bracketleft" unicode="[" horiz-adv-x="278" 
d="M85 -96v818h137v-50h-72v-718h72v-50h-137z" />
    <glyph glyph-name="backslash" unicode="\" horiz-adv-x="278" 
d="M-44 722h65l302 -722h-65z" />
    <glyph glyph-name="bracketright" unicode="]" horiz-adv-x="278" 
d="M193 722v-818h-137v50h72v718h-72v50h137z" />
    <glyph glyph-name="asciicircum" unicode="^" horiz-adv-x="660" 
d="M74 239l230 453h52l231 -453h-57l-201 392l-197 -392h-58z" />
    <glyph glyph-name="underscore" unicode="_" horiz-adv-x="500" 
d="M0 -124v56h500v-56h-500z" />
    <glyph glyph-name="quoteleft" unicode="&#x2018;" horiz-adv-x="278" 
d="M73 517l72 205h52l-43 -205h-81z" />
    <glyph glyph-name="a" unicode="a" horiz-adv-x="500" 
d="M364 354q-5 62 -35 85t-84 23q-24 0 -45 -4t-37.5 -14t-27 -27t-13.5 -42h-64q6 39 22.5 66t41 44t56.5 24.5t68 7.5q83 0 131 -40t47 -126v-238q-1 -29 1 -58t4 -55h-62l-2 74h-2l-3 -7q-8 -16 -24 -30.5t-37 -26t-46 -18.5t-50 -7q-35 0 -65.5 10.5t-53 30.5
t-35.5 48.5t-13 65.5q0 51 28 88.5t73 56.5q25 11 53.5 15.5t58 5.5t59 0.5t56.5 1.5v46zM101 140q0 -51 33.5 -75.5t79.5 -24.5q49 0 79.5 18.5t47 48.5t21 68.5t2.5 77.5q-32 -1 -77 -1t-86.5 -9t-70.5 -32.5t-29 -70.5z" />
    <glyph glyph-name="b" unicode="b" 
d="M127 0h-62q2 26 3.5 55t1.5 58v609h60v-294l2 -2q26 44 74 67.5t98 23.5q56 0 95 -23t64 -60.5t36 -84.5t11 -96q0 -47 -11 -95t-35.5 -86.5t-63 -62.5t-93.5 -24t-99.5 24t-75.5 69l-2 -4zM292 462q-44 0 -74.5 -17t-50 -45t-28.5 -64.5t-9 -74.5q0 -43 8.5 -83
t28 -70.5t52.5 -49t82 -18.5q43 0 71 21t44 53t22.5 70.5t6.5 73.5q0 36 -8 72.5t-26 65.5t-47 47.5t-72 18.5z" />
    <glyph glyph-name="c" unicode="c" horiz-adv-x="500" 
d="M397 348q-4 58 -39 86t-98 28q-35 0 -62.5 -17t-46.5 -45.5t-29.5 -66.5t-10.5 -81t10.5 -81.5t29.5 -67.5t46.5 -46t62.5 -17q59 0 96 32.5t41 84.5h65q-24 -172 -196 -172q-56 0 -97.5 22.5t-68.5 59.5t-40.5 85t-13.5 99t14 99t42 85t70 59.5t98 22.5q39 0 73 -11.5
t60 -33t41.5 -53t17.5 -71.5h-65z" />
    <glyph glyph-name="d" unicode="d" 
d="M426 74l-2 4q-31 -45 -75 -69t-97 -24q-56 0 -95 24t-64 62.5t-36 86.5t-11 95q0 49 11 96t36 84.5t64 60.5t95 23q50 0 98 -23.5t74 -67.5l2 2v294h60v-609q0 -29 1.5 -58t3.5 -55h-62zM424 263q0 38 -9 74t-28.5 63.5t-50 44.5t-74.5 17q-43 0 -72 -18t-46.5 -47
t-25 -65t-7.5 -72q0 -35 6 -73.5t22 -71t43.5 -54t70.5 -21.5q49 0 82 19t52.5 50t28 71t8.5 83z" />
    <glyph glyph-name="e" unicode="e" 
d="M438 292q-3 36 -14 67.5t-31 54t-49.5 35.5t-68.5 13q-37 0 -65 -14t-47.5 -38t-31 -54.5t-14.5 -63.5h321zM115 237q1 -40 11 -76t31 -63t53.5 -42.5t78.5 -15.5q27 0 50.5 9t43 25t32.5 38t19 48h63q-23 -91 -79.5 -133t-147.5 -42q-56 0 -97.5 22.5t-68.5 59.5
t-40.5 85t-13.5 99t14 99t42 85t70 59.5t98 22.5q63 0 106.5 -21.5t71 -59.5t39.5 -89t12 -110h-388z" />
    <glyph glyph-name="f" unicode="f" horiz-adv-x="333" 
d="M123 0v447h-101v55h101v107q0 65 28 95t93 30q14 0 28.5 -4t28.5 -7v-48q-9 2 -18.5 3t-18.5 1q-31 0 -48 -7.5t-24.5 -22t-8.5 -35.5t0 -48v-64h114v-55h-114v-447h-60z" />
    <glyph glyph-name="g" unicode="g" 
d="M429 502h62q-2 -26 -3.5 -55t-1.5 -58v-301q0 -38 -1 -75.5t-10.5 -71t-31 -62.5t-63.5 -48q-30 -14 -54.5 -18.5t-59.5 -4.5q-34 0 -69.5 6.5t-64 22t-47 41.5t-18.5 65h65q3 -23 16.5 -38t33.5 -24.5t44 -13.5t48 -4q29 0 56 10t48 28t34 43.5t14 57.5v94h-2
q-22 -45 -68 -69.5t-95 -24.5q-57 0 -97.5 20t-67 54.5t-39 80.5t-12.5 98q0 51 12 98.5t37.5 83.5t66.5 58t98 22q55 0 95 -24.5t70 -68.5l2 4zM426 262q0 36 -10 71.5t-30 64t-50.5 46.5t-70.5 18q-41 0 -70.5 -18.5t-48 -48t-27.5 -65.5t-9 -70q0 -35 9 -71t28 -65
t49 -48t71 -19q43 0 73.5 18t49.5 47.5t27.5 66t8.5 73.5z" />
    <glyph glyph-name="h" unicode="h" 
d="M140 426h2q26 47 67 69t90 22q41 0 70 -11t48.5 -28.5t31.5 -40t18 -45t7.5 -43.5t1.5 -35v-314h-60v324q0 66 -35 102t-97 36q-37 0 -64 -14.5t-45 -38.5t-26.5 -55t-8.5 -65v-289h-60v722h60v-296z" />
    <glyph glyph-name="i" unicode="i" horiz-adv-x="222" 
d="M146 647h-70v75h70v-75zM141 502v-502h-60v502h60z" />
    <glyph glyph-name="j" unicode="j" horiz-adv-x="222" 
d="M146 647h-70v75h70v-75zM3 -137q33 0 49.5 5.5t22.5 22t6 47.5v79v485h60v-524q0 -48 -2.5 -81.5t-16 -53.5t-41 -28.5t-78.5 -6.5v55z" />
    <glyph glyph-name="k" unicode="k" horiz-adv-x="500" 
d="M146 297l243 205h77l-254 -217l274 -285h-76l-264 272v-272h-60v722h60v-425z" />
    <glyph glyph-name="l" unicode="l" horiz-adv-x="222" 
d="M141 0h-60v722h60v-722z" />
    <glyph glyph-name="m" unicode="m" horiz-adv-x="889" 
d="M139 428l2 -2q26 47 67 69t90 22q60 0 103 -30t60 -80q14 22 31.5 42t39.5 35t47.5 24t54.5 9q41 0 70 -11t48.5 -28.5t31.5 -40t18 -45t7.5 -43.5t1.5 -35v-314h-60v324q0 66 -35 102t-97 36q-37 0 -64 -14.5t-45 -38.5t-26.5 -55t-8.5 -65v-289h-60v324q0 66 -35 102
t-97 36q-37 0 -64 -14.5t-45 -38.5t-26.5 -55t-8.5 -65v-289h-60v389q0 29 -1.5 58t-3.5 55h62z" />
    <glyph glyph-name="n" unicode="n" 
d="M140 0h-60v389q0 29 -1.5 58t-3.5 55h62l3 -74l2 -2q26 47 67 69t90 22q41 0 70 -11t48.5 -28.5t31.5 -40t18 -45t7.5 -43.5t1.5 -35v-314h-60v324q0 66 -35 102t-97 36q-37 0 -64 -14.5t-45 -38.5t-26.5 -55t-8.5 -65v-289z" />
    <glyph glyph-name="o" unicode="o" 
d="M278 517q60 0 104 -23t73 -60.5t43 -85.5t14 -97q0 -50 -14 -97.5t-43 -85t-73 -60.5t-104 -23t-104 23t-73 60.5t-43 85t-14 97.5q0 49 14 97t43 85.5t73 60.5t104 23zM447 251q0 35 -9.5 72.5t-29.5 68t-52.5 50.5t-77.5 20t-77.5 -20t-52.5 -50.5t-29.5 -68
t-9.5 -72.5t9.5 -72.5t29.5 -68t52.5 -50.5t77.5 -20t77.5 20t52.5 50.5t29.5 68t9.5 72.5z" />
    <glyph glyph-name="p" unicode="p" 
d="M130 -192h-60v581q1 29 -1 58t-4 55h62l3 -74l2 -2q26 44 74 67.5t98 23.5q56 0 95 -23t64 -60.5t36 -84.5t11 -96q0 -47 -11 -95t-35.5 -86.5t-63 -62.5t-93.5 -24t-99.5 24t-75.5 69h-2v-270zM130 263q0 -43 8.5 -83t28 -71t52.5 -50t82 -19q43 0 71 21.5t44 54
t22.5 71t6.5 73.5q0 36 -8 72t-26 65t-47 47t-72 18q-44 0 -74.5 -17t-50 -44.5t-28.5 -63.5t-9 -74z" />
    <glyph glyph-name="q" unicode="q" 
d="M429 502h62q-2 -26 -3.5 -55t-1.5 -58v-580h-60v269h-2q-31 -45 -75.5 -69t-99.5 -24t-93.5 24t-63 62.5t-35.5 86.5t-11 95q0 49 11 96t36 84.5t64 60.5t95 23q50 0 98 -23t74 -66v-3h2v3zM426 263q0 38 -9 74t-28.5 63.5t-50 44.5t-74.5 17q-43 0 -72 -18t-47 -47
t-26 -65t-8 -72q0 -35 6.5 -73.5t22.5 -71t44 -54t71 -21.5q49 0 82 19t52.5 50t28 71t8.5 83z" />
    <glyph glyph-name="r" unicode="r" horiz-adv-x="333" 
d="M140 0h-60v389q1 29 -1 58t-4 55h62l3 -74h2q14 38 44.5 62.5t68.5 26.5q15 1 30 0.5t30 -1.5v-58q-9 1 -18.5 2.5t-18.5 1.5q-67 0 -101.5 -44t-36.5 -116v-302z" />
    <glyph glyph-name="s" unicode="s" horiz-adv-x="500" 
d="M63 377q0 39 16.5 65.5t42.5 43t59 24t66 7.5q36 0 67.5 -7t56.5 -23t40.5 -42.5t18.5 -66.5h-65q-2 24 -13 40t-28 25.5t-38.5 14t-44.5 4.5q-21 0 -41.5 -4.5t-36 -14t-25.5 -25t-10 -37.5q0 -28 17.5 -42.5t48 -24.5t73.5 -20t94 -28q39 -14 62 -45t23 -72
q0 -42 -18 -73t-47.5 -51.5t-67.5 -30t-78 -9.5q-33 0 -66 8t-60 26t-44.5 47t-18.5 71h65q2 -28 14.5 -46.5t31.5 -30t43 -16t50 -4.5q24 0 47.5 6t42 18t30 31t11.5 45q0 27 -13.5 44t-36 27.5t-51 17l-58.5 13.5t-58.5 16t-51 24t-36 37.5t-13.5 57.5z" />
    <glyph glyph-name="t" unicode="t" horiz-adv-x="333" 
d="M123 447h-100v55h100v107l60 26v-133h114v-55h-114v-336q-2 -71 69 -71q14 0 27 1t25 5v-52q-14 -4 -30 -6.5t-31 -2.5q-48 0 -72.5 13.5t-35 35.5t-11.5 48t-1 52v313z" />
    <glyph glyph-name="u" unicode="u" 
d="M416 502h60v-389q0 -29 1.5 -58t3.5 -55h-62l-3 74l-2 2q-26 -47 -67 -69t-90 -22q-41 0 -70 11t-48.5 28.5t-31.5 40t-18 45t-7.5 43t-1.5 35.5v314h60v-324q0 -66 35 -102t97 -36q37 0 64 14.5t45 38.5t26.5 55t8.5 65v289z" />
    <glyph glyph-name="v" unicode="v" horiz-adv-x="500" 
d="M80 502l173 -419l167 419h66l-199 -502h-68l-205 502h66z" />
    <glyph glyph-name="w" unicode="w" horiz-adv-x="833" 
d="M232 79h2l152 423h71l148 -419h2l145 419h66l-187 -502h-57l-154 433h-2l-157 -433h-61l-184 502h66z" />
    <glyph glyph-name="x" unicode="x" horiz-adv-x="500" 
d="M404 502h63l-180 -243l196 -259h-79l-161 218l-158 -218h-68l2 2l192 255l-185 245h80l147 -202z" />
    <glyph glyph-name="y" unicode="y" horiz-adv-x="500" 
d="M81 502l169 -420l168 420h65l-277 -694h-66l76 192l-208 502h73z" />
    <glyph glyph-name="z" unicode="z" horiz-adv-x="444" 
d="M40 55l293 392h-293v55h364v-55l-291 -392h291v-55h-364v55z" />
    <glyph glyph-name="braceleft" unicode="{" horiz-adv-x="278" 
d="M248 -96h-50q-15 1 -30.5 9t-28.5 22t-21 33.5t-8 44.5v143q0 27 -2.5 49.5t-10 39t-22 26.5t-37.5 13v55q23 3 37.5 13t22 27t10 39.5t2.5 50.5v144q0 25 8 44.5t21 33.5t28.5 21.5t30.5 9.5h50v-50h-33q-20 -5 -30 -22.5t-10 -52.5v-143q0 -36 -9 -61.5t-20.5 -42.5
t-22 -26t-13.5 -12q3 -2 13.5 -11t22 -26t20.5 -42.5t9 -61.5v-142q0 -35 10 -52.5t30 -22.5h33v-50z" />
    <glyph glyph-name="bar" unicode="|" horiz-adv-x="222" 
d="M81 750h60v-1000h-60v1000z" />
    <glyph glyph-name="braceright" unicode="}" horiz-adv-x="278" 
d="M30 722h50q15 -2 30.5 -9.5t28.5 -21.5t21 -33.5t8 -44.5v-143q0 -28 2.5 -50.5t10 -39t22 -26.5t37.5 -13v-55q-23 -3 -37.5 -13t-22 -26.5t-10 -39.5t-2.5 -50v-144q0 -25 -8 -44.5t-21 -33.5t-28.5 -22t-30.5 -9h-50v50h33q20 5 30 22.5t10 52.5v143q0 36 9 61.5
t20.5 42.5t22 26t13.5 12q-3 2 -13.5 11t-22 26t-20.5 42.5t-9 61.5v142q0 35 -10 52.5t-30 22.5h-33v50z" />
    <glyph glyph-name="asciitilde" unicode="~" horiz-adv-x="660" 
d="M221 319q27 0 57.5 -11t59.5 -25q30 -14 56.5 -25t46.5 -11q17 0 32 8.5t27.5 21.5t22.5 28t17 29l40 -34q-11 -20 -24.5 -39.5t-31 -35t-38.5 -25t-46 -9.5q-14 0 -32 4.5t-36.5 11t-36 14t-30.5 12.5q-20 8 -41 19.5t-43 11.5q-20 0 -36 -9.5t-29 -23.5t-23.5 -30.5
l-19.5 -31.5l-33 47l24.5 34t30.5 33.5t38 25.5t48 10z" />
    <glyph glyph-name="exclamdown" unicode="&#xa1;" horiz-adv-x="389" 
d="M223 371l13 -551h-82l13 551h56zM235 542v-86h-80v86h80z" />
    <glyph glyph-name="cent" unicode="&#xa2;" 
d="M363 639h44l-38 -134q50 -17 82 -57t35 -100h-65q-4 78 -67 102l-112 -402q21 -8 42 -8q59 0 96 32.5t41 84.5h65q-24 -172 -196 -172q-36 0 -63 9l-36 -127h-45l41 144q-30 16 -52 41.5t-36.5 57t-21.5 67.5t-7 74q0 51 14 99t42 85t70 59.5t98 22.5q19 0 34 -3z
M313 460q-8 1 -14.5 1.5t-14.5 0.5q-35 0 -62.5 -17t-46.5 -45.5t-29.5 -66.5t-10.5 -81q0 -57 18 -105.5t51 -75.5z" />
    <glyph glyph-name="sterling" unicode="&#xa3;" 
d="M60 0v60h60v312h-74v60h75q-3 55 4 104.5t30.5 87.5t68 60.5t116.5 22.5q38 0 71.5 -9.5t59 -27.5t40.5 -45t16 -61h-70q-2 39 -37 61t-88 22q-39 0 -67 -13.5t-45.5 -36.5t-26 -55t-8.5 -68v-42h162v-60h-162v-312h320v-60h-445z" />
    <glyph glyph-name="fraction" unicode="&#x2044;" horiz-adv-x="167" 
d="M-96 0h-55l417 707h53z" />
    <glyph glyph-name="yen" unicode="&#xa5;" 
d="M247 0v136h-203v60h203v60h-203v60h201l-244 376h83l201 -319l200 319h70l-242 -376h199v-60h-200v-60h200v-60h-200v-136h-65z" />
    <glyph glyph-name="florin" unicode="&#x192;" 
d="M139 408l9 60h94l16 80q4 26 11.5 54t22 51.5t38.5 38.5t62 15q18 0 35.5 -2t35.5 -5l-8 -57q-19 4 -44 4q-45 0 -61 -22t-22 -57l-20 -100h106l-8 -60h-107l-70 -363q-7 -35 -13.5 -76.5t-21 -77t-41.5 -59.5t-75 -24q-24 0 -46 6l11 54q28 -7 48 -1q15 4 24.5 16.5
t16 28.5t10.5 33t7 31l84 432h-94z" />
    <glyph glyph-name="section" unicode="&#xa7;" 
d="M405 663q-9 4 -22 7.5t-27 6t-27.5 4t-22.5 1.5q-19 0 -39.5 -3.5t-38 -12.5t-28.5 -24t-11 -38q0 -26 18.5 -43.5t46 -30.5t60 -25t60 -27.5t46 -36.5t18.5 -53q0 -22 -9.5 -41t-25 -34t-34 -27t-36.5 -20q22 -9 42.5 -20t35.5 -26t24 -35t9 -46q0 -41 -16.5 -70
t-43.5 -47.5t-61.5 -27.5t-70.5 -9q-32 0 -65.5 5.5t-63.5 16.5v57q31 -13 60.5 -18.5t63.5 -5.5q23 0 46.5 5t42.5 16.5t31 30.5t12 46t-20 43t-49.5 27.5t-64.5 22t-64.5 26t-49.5 39.5t-20 63q0 22 10 41t25.5 34t34.5 26.5t37 19.5q-19 10 -36 21.5t-30 26t-20.5 32.5
t-7.5 41q0 38 15.5 64t40.5 42t56.5 23t63.5 7q26 0 52.5 -6t52.5 -13v-55zM260 461l-30 -18t-27 -19.5t-19.5 -24.5t-7.5 -34q0 -18 11 -31t26.5 -23t33 -16.5t30.5 -12.5l31.5 16.5t31 19t24 24.5t9.5 34t-12.5 32.5t-30.5 21.5t-37.5 16t-32.5 15z" />
    <glyph glyph-name="currency" unicode="&#xa4;" 
d="M276 120q37 0 70.5 14t58.5 39t39.5 58.5t14.5 71.5q0 36 -14 68.5t-38 57.5t-56.5 40t-68.5 14q-39 1 -73 -13t-59 -39t-39.5 -58.5t-13.5 -72.5q-1 -36 13.5 -69t39 -57.5t57.5 -39t69 -14.5zM75 152q-24 35 -36 70t-12 78q0 45 11 80t37 71l-43 43l52 53l44 -43
q34 26 73 37.5t81 11.5t77 -13t69 -36l44 43l52 -53l-43 -43q26 -37 37 -73.5t11 -82.5q0 -42 -12.5 -75t-35.5 -68l43 -42l-52 -53l-44 43q-68 -50 -155 -50q-42 0 -77 13.5t-68 36.5l-44 -43l-52 53z" />
    <glyph glyph-name="quotesingle" unicode="'" horiz-adv-x="278" 
d="M113 722h52v-226h-52v226z" />
    <glyph glyph-name="quotedblleft" unicode="&#x201c;" 
d="M119 517l72 205h52l-43 -205h-81zM303 517l72 205h52l-43 -205h-81z" />
    <glyph glyph-name="guillemotleft" unicode="&#xab;" 
d="M259 462l-93 -195l92 -195h-50l-106 195l106 195h51zM439 462l-93 -195l92 -195h-50l-106 195l106 195h51z" />
    <glyph glyph-name="guilsinglleft" unicode="&#x2039;" horiz-adv-x="278" 
d="M215 462l-93 -195l92 -195h-50l-106 195l106 195h51z" />
    <glyph glyph-name="guilsinglright" unicode="&#x203a;" horiz-adv-x="278" 
d="M63 72l93 195l-92 195h50l106 -195l-106 -195h-51z" />
    <glyph glyph-name="fi" unicode="&#xfb01;" 
d="M123 0v447h-101v55h101v107q0 65 28 95t93 30q14 0 28.5 -4t28.5 -7v-48q-9 2 -18.5 3t-18.5 1q-31 0 -48 -7.5t-24.5 -22t-8.5 -35.5t0 -48v-64h114v-55h-114v-447h-60zM471 647h-70v75h70v-75zM466 502v-502h-60v502h60z" />
    <glyph glyph-name="fl" unicode="&#xfb02;" 
d="M470 0h-60v722h60v-722zM125 0v447h-101v55h101v107q0 65 28 95t93 30q14 0 28.5 -4t28.5 -7v-48q-9 2 -18.5 3t-18.5 1q-31 0 -48 -7.5t-24.5 -22t-8.5 -35.5t0 -48v-64h114v-55h-114v-447h-60z" />
    <glyph glyph-name="endash" unicode="&#x2013;" horiz-adv-x="500" 
d="M0 237v60h500v-60h-500z" />
    <glyph glyph-name="dagger" unicode="&#x2020;" 
d="M76 487v55h172v180h60v-180h172v-55h-172v-487h-60v487h-172z" />
    <glyph glyph-name="daggerdbl" unicode="&#x2021;" 
d="M76 487v55h172v180h60v-180h172v-55h-172v-255h172v-55h-172v-177h-60v177h-172v55h172v255h-172z" />
    <glyph glyph-name="periodcentered" unicode="&#x2219;" horiz-adv-x="278" 
d="M179 208h-80v86h80v-86z" />
    <glyph glyph-name="periodcentered" unicode="&#x22c5;" horiz-adv-x="278" 
d="M179 208h-80v86h80v-86z" />
    <glyph glyph-name="paragraph" unicode="&#xb6;" horiz-adv-x="650" 
d="M258 336q-38 0 -73 15t-61.5 41t-42 60.5t-15.5 73.5q0 95 58.5 145.5t164.5 50.5h217v-868h-65v808h-118v-808h-65v482z" />
    <glyph glyph-name="bullet" unicode="&#x2022;" horiz-adv-x="500" 
d="M430 361q0 -37 -14 -69.5t-39 -57t-58 -39t-70 -14.5t-69.5 14.5t-57 39t-38.5 57t-14 69.5t14 70t38.5 57.5t57 38.5t69.5 14t70 -14t58 -38.5t39 -57.5t14 -70z" />
    <glyph glyph-name="quotesinglbase" unicode="&#x201a;" horiz-adv-x="278" 
d="M205 81l-72 -205h-52l43 205h81z" />
    <glyph glyph-name="quotedblbase" unicode="&#x201e;" 
d="M251 81l-72 -205h-52l43 205h81zM435 81l-72 -205h-52l43 205h81z" />
    <glyph glyph-name="quotedblright" unicode="&#x201d;" 
d="M253 722l-72 -205h-52l43 205h81zM437 722l-72 -205h-52l43 205h81z" />
    <glyph glyph-name="guillemotright" unicode="&#xbb;" 
d="M297 72l93 195l-92 195h50l106 -195l-106 -195h-51zM117 72l93 195l-92 195h50l106 -195l-106 -195h-51z" />
    <glyph glyph-name="ellipsis" unicode="&#x2026;" horiz-adv-x="1000" 
d="M873 86v-86h-80v86h80zM540 86v-86h-80v86h80zM207 86v-86h-80v86h80z" />
    <glyph glyph-name="perthousand" unicode="&#x2030;" horiz-adv-x="1000" 
d="M825 264q-24 0 -41 -10.5t-27.5 -27.5t-15.5 -37.5t-5 -41.5t5 -41.5t15.5 -37.5t27.5 -27.5t41 -10.5t41 10.5t27.5 27.5t15.5 37.5t5 41.5t-5 41.5t-15.5 37.5t-27.5 27.5t-41 10.5zM825 -15q-36 0 -63 12t-45 33.5t-27 51.5t-9 65t9 65t27 51.5t45 33.5t63 12t63 -12
t45 -33.5t27 -51.5t9 -65t-9 -65t-27 -51.5t-45 -33.5t-63 -12zM175 383q-36 0 -63 12t-45 33.5t-27 51.5t-9 65t9 65t27 51.5t45 33.5t63 12t63 -12t45 -33.5t27 -51.5t9 -65t-9 -65t-27 -51.5t-45 -33.5t-63 -12zM478 -15q-36 0 -63 12t-45 33.5t-27 51.5t-9 65t9 65
t27 51.5t45 33.5t63 12t63 -12t45 -33.5t27 -51.5t9 -65t-9 -65t-27 -51.5t-45 -33.5t-63 -12zM478 264q-24 0 -41 -10.5t-27.5 -27.5t-15.5 -37.5t-5 -41.5t5 -41.5t15.5 -37.5t27.5 -27.5t41 -10.5t41 10.5t27.5 27.5t15.5 37.5t5 41.5t-5 41.5t-15.5 37.5t-27.5 27.5
t-41 10.5zM175 662q-24 0 -41 -10.5t-27.5 -27.5t-15.5 -37.5t-5 -41.5t5 -41.5t15.5 -37.5t27.5 -27.5t41 -10.5t41 10.5t27.5 27.5t15.5 37.5t5 41.5t-5 41.5t-15.5 37.5t-27.5 27.5t-41 10.5zM509 707h53l-415 -722h-56z" />
    <glyph glyph-name="questiondown" unicode="&#xbf;" horiz-adv-x="500" 
d="M335 542v-86h-80v86h80zM325 376v-108q-1 -24 -15 -45t-34.5 -41.5t-44.5 -41.5t-44.5 -44t-34 -49.5t-13.5 -57.5q0 -35 14 -58.5t36.5 -37.5t51.5 -19.5t60 -5.5q24 0 47.5 4t46.5 11v-61q-27 -8 -54.5 -11t-55.5 -3q-42 0 -80.5 11t-67.5 33t-46 55.5t-17 79.5
q0 31 8 56t22.5 46.5t33 41t39.5 39.5q27 28 44.5 44.5t28 29.5t14 26.5t1.5 35.5v70h60z" />
    <glyph glyph-name="grave" unicode="`" horiz-adv-x="278" 
d="M100 707l91 -143h-44l-127 143h80z" />
    <glyph glyph-name="acute" unicode="&#xb4;" horiz-adv-x="278" 
d="M258 707l-127 -143h-44l91 143h80z" />
    <glyph glyph-name="circumflex" unicode="&#x2c6;" horiz-adv-x="278" 
d="M103 707h73l99 -145h-47l-89 106l-90 -106h-46z" />
    <glyph glyph-name="tilde" unicode="&#x2dc;" horiz-adv-x="278" 
d="M277 695q-8 -34 -30.5 -59.5t-60.5 -25.5q-11 0 -22 3t-23 8q-11 4 -24.5 7t-29.5 3q-15 0 -29 -7t-18 -22h-38q9 41 36.5 64t71.5 16q7 -1 18 -4t22 -7l22 -6t17 -3q17 0 30.5 8.5t19.5 24.5h38z" />
    <glyph glyph-name="macron" unicode="&#xaf;" horiz-adv-x="278" 
d="M17 647v60h245v-60h-245z" />
    <glyph glyph-name="macron" unicode="&#x2c9;" horiz-adv-x="278" 
d="M17 647v60h245v-60h-245z" />
    <glyph glyph-name="breve" unicode="&#x2d8;" horiz-adv-x="278" 
d="M261 707q-2 -30 -11.5 -49t-26 -30t-38.5 -15t-49 -4q-24 0 -45.5 5t-38 16.5t-26 30.5t-9.5 46h19q4 -17 15 -27t25 -15.5t30 -7.5t30 -2q15 0 31.5 2t31.5 8t27 16t17 26h18z" />
    <glyph glyph-name="dotaccent" unicode="&#x2d9;" horiz-adv-x="278" 
d="M102 619v88h74v-88h-74z" />
    <glyph glyph-name="dieresis" unicode="&#xa8;" horiz-adv-x="278" 
d="M15 619v88h74v-88h-74zM189 619v88h74v-88h-74z" />
    <glyph glyph-name="ring" unicode="&#x2da;" horiz-adv-x="278" 
d="M194 649q0 21 -17 38t-38 17t-38 -16.5t-17 -38.5q0 -20 17 -37.5t38 -17.5q20 0 37.5 17.5t17.5 37.5zM51 649q0 18 7 34t19 28t28 19t34 7t34 -7t28 -19t19 -28t7 -34t-7 -34t-19 -28t-28 -19t-34 -7t-34 7t-28 19t-19 28t-7 34z" />
    <glyph glyph-name="cedilla" unicode="&#xb8;" horiz-adv-x="278" 
d="M35 -133q22 -8 44 -14.5t45 -10.5q7 -1 21.5 2.5t20.5 8.5q8 8 10 14.5t2 17.5q0 21 -15.5 28.5t-32.5 7.5q-8 0 -16.5 -1l-16.5 -2l28 87h23l-15 -55q19 0 37 -2t32 -9t23 -20.5t9 -35.5q0 -18 -9 -30.5t-22.5 -20.5t-30 -11.5t-31.5 -3.5q-19 0 -32.5 1.5t-25.5 4.5
t-24.5 7t-30.5 9z" />
    <glyph glyph-name="hungarumlaut" unicode="&#x2dd;" 
d="M351 707h81l-129 -141h-47zM220 707h81l-129 -141h-47z" />
    <glyph glyph-name="ogonek" unicode="&#x2db;" horiz-adv-x="278" 
d="M246 -169q-10 -4 -25.5 -8t-33 -7t-34 -5t-29.5 -2q-18 0 -36.5 5t-33.5 16t-24.5 28.5t-9.5 43.5q0 18 11.5 34t29.5 28.5t38.5 21.5t38.5 14h53v-2q-24 -9 -45 -19.5t-36.5 -22t-25 -23t-9.5 -22.5q0 -14 7 -24.5t17.5 -17.5t22.5 -11t22 -4q18 0 31 1.5t24.5 4t22.5 6
t24 8.5v-43z" />
    <glyph glyph-name="caron" unicode="&#x2c7;" horiz-adv-x="278" 
d="M175 562h-73l-99 145h47l89 -106l90 106h46z" />
    <glyph glyph-name="emdash" unicode="&#x2014;" horiz-adv-x="1000" 
d="M0 237v60h1000v-60h-1000z" />
    <glyph glyph-name="AE" unicode="&#xc6;" horiz-adv-x="1000" 
d="M228 256h308l-69 406h-2zM925 722v-60h-389l43 -259h328v-60h-319l47 -283h299v-60h-356l-34 196h-350l-114 -196h-72l418 722h499z" />
    <glyph glyph-name="ordfeminine" unicode="&#xaa;" horiz-adv-x="300" 
d="M232 639q-3 37 -21 47.5t-52 10.5q-27 0 -48.5 -7t-26.5 -38h-46q7 47 41 66t81 19q54 0 85.5 -23.5t30.5 -75.5v-165q0 -12 1.5 -23.5t2.5 -22.5h-46l-3 40h-2q-11 -19 -37.5 -34t-59.5 -15q-45 0 -77 24t-32 69q0 31 18.5 53.5t47.5 33.5q16 6 34.5 8.5t37.5 3.5t37 1
t34 1v27zM232 572q-19 -1 -47 -1q-27 0 -52 -4.5t-42.5 -17t-17.5 -38.5q0 -31 18 -42t48 -11t49 10t29.5 26.5t14 37t2.5 42.5h-2v-2z" />
    <glyph glyph-name="Lslash" unicode="&#x141;" 
d="M100 0v399l-94 -37v40l94 37v283h65v-257l94 37v-40l-94 -37v-365h363v-60h-428z" />
    <glyph glyph-name="Oslash" unicode="&#xd8;" horiz-adv-x="778" 
d="M209 127q30 -38 74.5 -60t105.5 -22q67 0 115 27t78.5 71.5t44.5 101.5t14 116q0 54 -11.5 105.5t-36.5 94.5zM83 -15l-29 27l84 94q-35 48 -53 112.5t-18 142.5q0 84 21 153.5t62 119t101 76.5t138 27q73 0 130 -24t98 -68l82 92l27 -25l-85 -97q70 -97 70 -254
q0 -84 -21 -153.5t-62 -119t-101 -76.5t-138 -27q-72 0 -128 23t-98 68zM571 593q-31 39 -76 61.5t-106 22.5q-68 0 -115.5 -27t-78 -71.5t-44.5 -101.5t-14 -116q0 -55 11.5 -107t37.5 -94z" />
    <glyph glyph-name="OE" unicode="&#x152;" horiz-adv-x="1000" 
d="M555 69h-4q-16 -22 -38 -37.5t-47 -26t-51.5 -15.5t-51.5 -5q-70 0 -126 27t-95 76.5t-60 119t-21 153.5t21 153.5t60 119t95 76.5t126 27q52 0 99.5 -16t92.5 -62v63h376v-60h-311v-259h297v-60h-297v-283h326v-60h-391v69zM131 361q0 -59 13.5 -116t42 -101.5
t72.5 -71.5t104 -27q88 3 139 47.5t51 128.5v253q1 109 -48.5 156t-141.5 47q-60 0 -104 -27t-72.5 -71.5t-42 -101.5t-13.5 -116z" />
    <glyph glyph-name="ordmasculine" unicode="&#xba;" horiz-adv-x="334" 
d="M167 737q39 0 67.5 -13.5t47.5 -36t28 -51t9 -58.5t-9 -59t-28 -51.5t-47.5 -36t-67.5 -13.5t-67.5 13.5t-47.5 36t-28 51.5t-9 59t9 58.5t28 51t47.5 36t67.5 13.5zM65 578q0 -21 6 -42.5t18.5 -38.5t31.5 -28t46 -11q26 0 45.5 11t32 28t18.5 38.5t6 42.5t-6 42
t-18.5 38t-32 28t-45.5 11q-27 0 -46 -11t-31.5 -28t-18.5 -38t-6 -42z" />
    <glyph glyph-name="ae" unicode="&#xe6;" horiz-adv-x="833" 
d="M286 244q-35 0 -68 -2.5t-59 -14t-42 -35t-16 -66.5q0 -22 11 -38.5t28 -27t37 -15.5t39 -5q48 0 77.5 17t45 45.5t20.5 65t4 75.5zM58 375q6 39 22.5 66t41 44t56.5 24.5t68 7.5q25 -2 50.5 -9t47.5 -20t37.5 -32t21.5 -44h2q12 27 29 46t37.5 32t43 19.5t44.5 7.5
q59 0 100.5 -21.5t68 -58.5t38.5 -87t12 -106h-350q-1 -38 5.5 -74.5t22.5 -65.5t42.5 -46.5t65.5 -17.5q27 0 50.5 9t43 25t32.5 38t19 48h63q-23 -91 -77 -133t-130 -42q-54 5 -99 33.5t-68 85.5q-22 -59 -74.5 -86.5t-120.5 -32.5q-35 0 -65.5 10.5t-53 30.5t-35.5 48.5
t-13 65.5q0 51 29 84.5t72 52.5q25 11 53.5 15.5t57.5 5.5t58.5 0.5t56.5 0.5v55q-5 62 -34.5 85t-83.5 23q-24 0 -45 -4t-37.5 -14t-27 -27t-13.5 -42h-64zM713 299q0 33 -8 62.5t-25.5 52t-45 35.5t-67.5 13q-34 0 -60 -15t-44 -38.5t-27 -52.5t-8 -57h285z" />
    <glyph glyph-name="dotlessi" unicode="&#x131;" horiz-adv-x="222" 
d="M81 0v502h60v-502h-60z" />
    <glyph glyph-name="lslash" unicode="&#x142;" horiz-adv-x="222" 
d="M141 722v-250l76 30v-34l-76 -31v-437h-60v413l-76 -30v34l76 31v274h60z" />
    <glyph glyph-name="oslash" unicode="&#xf8;" 
d="M95 78q-26 37 -38.5 81.5t-12.5 91.5q0 49 14 97t43 85.5t73 60.5t104 23q52 0 91.5 -17.5t67.5 -46.5l59 64l24 -25l-60 -66q26 -37 39 -82t13 -93q0 -50 -14 -97.5t-43 -85t-73 -60.5t-104 -23q-53 0 -93 18t-68 47l-60 -65l-24 25zM159 97q20 -25 49 -41t70 -16
q45 0 77.5 20t52.5 50.5t29.5 68t9.5 72.5q0 32 -7.5 64.5t-24.5 61.5zM395 407q-20 25 -49 40t-68 15q-45 0 -77.5 -20t-52.5 -50.5t-29.5 -68t-9.5 -72.5q0 -30 7 -62.5t24 -61.5z" />
    <glyph glyph-name="oe" unicode="&#x153;" horiz-adv-x="889" 
d="M490 237q-1 -35 5.5 -70.5t22.5 -64t42.5 -46t65.5 -16.5q27 0 50.5 9t43 25t32.5 38t19 48h63q-23 -91 -77 -133t-130 -42q-57 0 -105 30.5t-65 94.5h-2q-23 -63 -71.5 -94t-105.5 -31q-60 0 -104 23t-73 60.5t-43 85t-14 97.5q0 49 14 97t43 85.5t73 60.5t104 23
q61 0 107.5 -33t70.5 -92q10 31 28 54.5t40.5 39.5t47.5 23.5t49 7.5q59 0 100.5 -21.5t68 -59.5t38.5 -89t12 -110h-350zM775 292q0 36 -8 67t-25.5 54t-45 36t-67.5 13q-34 0 -60 -15t-44 -39.5t-27 -55t-8 -60.5h285zM425 256q0 35 -7.5 72t-25.5 67t-48 49t-75 18
q-42 0 -72.5 -20t-50 -50.5t-28.5 -68t-9 -72.5t9 -72.5t28.5 -68t50 -50.5t72.5 -20q46 0 76.5 19.5t48 50.5t24.5 69.5t7 76.5z" />
    <glyph glyph-name="germandbls" unicode="&#xdf;" horiz-adv-x="611" 
d="M147 0h-60v509q0 51 12.5 93t37.5 72t63.5 46.5t91.5 16.5q35 0 67.5 -10t57.5 -29.5t40 -48.5t15 -67q0 -30 -18.5 -55t-40.5 -46.5l-40.5 -41t-18.5 -37.5q0 -25 16 -42t40 -31.5t52 -29t52 -34t40 -46t16 -65.5q0 -40 -13.5 -71.5t-37 -53t-55 -33t-66.5 -11.5
q-72 0 -115.5 41.5t-46.5 114.5h65q-2 -46 25 -73.5t70 -27.5q50 0 79.5 27t29.5 84q0 29 -16 49t-40 36t-52 31t-52 32.5t-40 40t-16 55.5q0 32 18.5 56t40.5 45t40.5 41.5t18.5 46.5q0 25 -11 43.5t-28 30.5t-39 18t-44 6q-41 0 -67.5 -18t-42 -46t-22 -62.5t-6.5 -67.5
v-488z" />
    <glyph glyph-name="onesuperior" unicode="&#xb9;" horiz-adv-x="333" 
d="M176 283v361q-23 -20 -48.5 -35t-53.5 -27v45q29 11 55.5 28t48.5 37h49v-409h-51z" />
    <glyph glyph-name="minus" unicode="&#x2212;" horiz-adv-x="660" 
d="M80 281h500v-60h-500v60z" />
    <glyph glyph-name="degree" unicode="&#xb0;" horiz-adv-x="400" 
d="M95 557q0 -46 29.5 -75.5t75.5 -29.5q45 0 75 29.5t30 75.5q0 45 -30 75t-76 30q-23 0 -42 -8t-33 -22t-21.5 -33.5t-7.5 -41.5zM350 557q0 -31 -12 -58.5t-32.5 -47.5t-47.5 -32t-58 -12t-58.5 12t-47.5 32t-32 47.5t-12 58.5t11.5 58t32 47.5t48 32.5t58.5 12t58 -12
t47.5 -32.5t32.5 -47.5t12 -58z" />
    <glyph glyph-name="oacute" unicode="&#xf3;" 
d="M397 707l-127 -143h-44l91 143h80zM278 517q60 0 104 -23t73 -60.5t43 -85.5t14 -97q0 -50 -14 -97.5t-43 -85t-73 -60.5t-104 -23t-104 23t-73 60.5t-43 85t-14 97.5q0 49 14 97t43 85.5t73 60.5t104 23zM447 251q0 35 -9.5 72.5t-29.5 68t-52.5 50.5t-77.5 20
t-77.5 -20t-52.5 -50.5t-29.5 -68t-9.5 -72.5t9.5 -72.5t29.5 -68t52.5 -50.5t77.5 -20t77.5 20t52.5 50.5t29.5 68t9.5 72.5z" />
    <glyph glyph-name="Odieresis" unicode="&#xd6;" horiz-adv-x="778" 
d="M265 839v88h74v-88h-74zM439 839v88h74v-88h-74zM711 361q0 -84 -21 -153.5t-62 -119t-101 -76.5t-138 -27t-138 27t-101 76.5t-62 119t-21 153.5t21 153.5t62 119t101 76.5t138 27t138 -27t101 -76.5t62 -119t21 -153.5zM137 361q0 -59 14 -116t44.5 -101.5t78 -71.5
t115.5 -27q67 0 115 27t78.5 71.5t44.5 101.5t14 116t-14 116t-44.5 101.5t-78.5 71.5t-115 27q-68 0 -115.5 -27t-78 -71.5t-44.5 -101.5t-14 -116z" />
    <glyph glyph-name="odieresis" unicode="&#xf6;" 
d="M154 619v88h74v-88h-74zM328 619v88h74v-88h-74zM278 517q60 0 104 -23t73 -60.5t43 -85.5t14 -97q0 -50 -14 -97.5t-43 -85t-73 -60.5t-104 -23t-104 23t-73 60.5t-43 85t-14 97.5q0 49 14 97t43 85.5t73 60.5t104 23zM447 251q0 35 -9.5 72.5t-29.5 68t-52.5 50.5
t-77.5 20t-77.5 -20t-52.5 -50.5t-29.5 -68t-9.5 -72.5t9.5 -72.5t29.5 -68t52.5 -50.5t77.5 -20t77.5 20t52.5 50.5t29.5 68t9.5 72.5z" />
    <glyph glyph-name="Ecircumflex" unicode="&#xca;" horiz-adv-x="611" 
d="M270 927h73l99 -145h-47l-89 106l-90 -106h-46zM102 0v722h429v-60h-364v-259h350v-60h-350v-283h379v-60h-444z" />
    <glyph glyph-name="ucircumflex" unicode="&#xfb;" 
d="M242 707h73l99 -145h-47l-89 106l-90 -106h-46zM416 502h60v-389q0 -29 1.5 -58t3.5 -55h-62l-3 74l-2 2q-26 -47 -67 -69t-90 -22q-41 0 -70 11t-48.5 28.5t-31.5 40t-18 45t-7.5 43t-1.5 35.5v314h60v-324q0 -66 35 -102t97 -36q37 0 64 14.5t45 38.5t26.5 55t8.5 65
v289z" />
    <glyph glyph-name="onequarter" unicode="&#xbc;" horiz-adv-x="834" 
d="M208 283v361q-23 -20 -48.5 -35t-53.5 -27v45q29 11 55.5 28t48.5 37h49v-409h-51zM626 358h-2l-140 -213h142v213zM237 0h-55l417 707h53zM626 97h-212v31l201 287h62v-270h63v-48h-63v-97h-51v97z" />
    <glyph glyph-name="logicalnot" unicode="&#xac;" horiz-adv-x="660" 
d="M520 318h-440v60h500v-266h-60v206z" />
    <glyph glyph-name="Edieresis" unicode="&#xcb;" horiz-adv-x="611" 
d="M182 839v88h74v-88h-74zM356 839v88h74v-88h-74zM102 0v722h429v-60h-364v-259h350v-60h-350v-283h379v-60h-444z" />
    <glyph glyph-name="onehalf" unicode="&#xbd;" horiz-adv-x="834" 
d="M503 0v41l36.5 32t47 44t49 51t44.5 53t32.5 50t12.5 43q0 28 -22.5 45t-58.5 17q-41 0 -65 -21.5t-24 -49.5h-48q0 28 10.5 50t29 37.5t44 23.5t54.5 8q27 0 51.5 -6.5t42.5 -20t29 -33.5t11 -47q0 -36 -24 -75.5t-56.5 -76.5t-65.5 -67.5t-50 -49.5h202v-48h-282z
M208 283v361q-23 -20 -48.5 -35t-53.5 -27v45q29 11 55.5 28t48.5 37h49v-409h-51zM237 0h-55l417 707h53z" />
    <glyph glyph-name="Otilde" unicode="&#xd5;" horiz-adv-x="778" 
d="M527 915q-8 -34 -30.5 -59.5t-60.5 -25.5q-11 0 -22 3t-23 8q-11 4 -24.5 7t-29.5 3q-15 0 -29 -7t-18 -22h-38q9 41 36.5 64t71.5 16q7 -1 18 -4t22 -7l22 -6t17 -3q17 0 30.5 8.5t19.5 24.5h38zM711 361q0 -84 -21 -153.5t-62 -119t-101 -76.5t-138 -27t-138 27
t-101 76.5t-62 119t-21 153.5t21 153.5t62 119t101 76.5t138 27t138 -27t101 -76.5t62 -119t21 -153.5zM137 361q0 -59 14 -116t44.5 -101.5t78 -71.5t115.5 -27q67 0 115 27t78.5 71.5t44.5 101.5t14 116t-14 116t-44.5 101.5t-78.5 71.5t-115 27q-68 0 -115.5 -27
t-78 -71.5t-44.5 -101.5t-14 -116z" />
    <glyph glyph-name="uacute" unicode="&#xfa;" 
d="M397 707l-127 -143h-44l91 143h80zM416 502h60v-389q0 -29 1.5 -58t3.5 -55h-62l-3 74l-2 2q-26 -47 -67 -69t-90 -22q-41 0 -70 11t-48.5 28.5t-31.5 40t-18 45t-7.5 43t-1.5 35.5v314h60v-324q0 -66 35 -102t97 -36q37 0 64 14.5t45 38.5t26.5 55t8.5 65v289z" />
    <glyph glyph-name="eacute" unicode="&#xe9;" 
d="M397 707l-127 -143h-44l91 143h80zM438 292q-3 36 -14 67.5t-31 54t-49.5 35.5t-68.5 13q-37 0 -65 -14t-47.5 -38t-31 -54.5t-14.5 -63.5h321zM115 237q1 -40 11 -76t31 -63t53.5 -42.5t78.5 -15.5q27 0 50.5 9t43 25t32.5 38t19 48h63q-23 -91 -79.5 -133t-147.5 -42
q-56 0 -97.5 22.5t-68.5 59.5t-40.5 85t-13.5 99t14 99t42 85t70 59.5t98 22.5q63 0 106.5 -21.5t71 -59.5t39.5 -89t12 -110h-388z" />
    <glyph glyph-name="iacute" unicode="&#xed;" horiz-adv-x="222" 
d="M230 707l-127 -143h-44l91 143h80zM81 0v502h60v-502h-60z" />
    <glyph glyph-name="Eth" unicode="&#xd0;" horiz-adv-x="722" 
d="M91 375h-68v45h68v302h195q179 0 275.5 -90.5t96.5 -270.5t-96.5 -270.5t-275.5 -90.5h-195v375zM156 420h216v-45h-216v-315h146q76 0 130.5 21.5t89 61t50.5 95t16 123.5q0 80 -22.5 138t-65.5 95t-104 53.5t-138 14.5h-102v-242z" />
    <glyph glyph-name="icircumflex" unicode="&#xee;" horiz-adv-x="222" 
d="M75 707h73l99 -145h-47l-89 106l-90 -106h-46zM81 0v502h60v-502h-60z" />
    <glyph glyph-name="registered" unicode="&#xae;" horiz-adv-x="800" 
d="M391 390q22 0 47.5 -0.5t47 5.5t35.5 21t14 45q0 22 -8.5 35.5t-23 21t-33 9.5t-37.5 2h-118v-139h76zM315 149h-55v430h185q84 0 117 -30.5t33 -88.5q0 -31 -10 -53t-28 -36t-42.5 -21.5t-52.5 -9.5l128 -191h-62l-121 191h-92v-191zM401 45q69 0 126.5 23.5t99.5 65.5
t65.5 100.5t23.5 127.5t-23.5 126.5t-65.5 99.5t-99.5 65.5t-126.5 23.5t-127 -23.5t-100.5 -65.5t-66 -99.5t-23.5 -126.5t23.5 -127.5t66 -100.5t100.5 -65.5t127 -23.5zM401 -15q-78 0 -146.5 29.5t-120 81t-81 120t-29.5 146.5q0 77 29.5 145.5t81 119.5t120 80.5
t146.5 29.5t146 -29.5t119 -80.5t80.5 -119.5t29.5 -145.5q0 -78 -29.5 -146.5t-80.5 -120t-119 -81t-146 -29.5z" />
    <glyph glyph-name="brokenbar" unicode="&#xa6;" horiz-adv-x="222" 
d="M81 675h60v-350h-60v350zM81 175h60v-350h-60v350z" />
    <glyph glyph-name="thorn" unicode="&#xfe;" 
d="M130 -192h-60v914h60v-294l2 -2q26 44 74 67.5t98 23.5q56 0 95 -23t64 -60.5t36 -84.5t11 -96q0 -47 -11 -95t-35.5 -86.5t-63 -62.5t-93.5 -24t-99.5 24t-75.5 69h-2v-270zM130 263q0 -43 8.5 -83t28 -71t52.5 -50t82 -19q43 0 71 21.5t44 54t22.5 71t6.5 73.5
q0 36 -8 72t-26 65t-47 47t-72 18q-44 0 -74.5 -17t-50 -44.5t-28.5 -63.5t-9 -74z" />
    <glyph glyph-name="Atilde" unicode="&#xc3;" horiz-adv-x="667" 
d="M472 915q-8 -34 -30.5 -59.5t-60.5 -25.5q-11 0 -22 3t-23 8q-11 4 -24.5 7t-29.5 3q-15 0 -29 -7t-18 -22h-38q9 41 36.5 64t71.5 16q7 -1 18 -4t22 -7l22 -6t17 -3q17 0 30.5 8.5t19.5 24.5h38zM9 0l286 722h76l288 -722h-71l-77 195h-359l-76 -195h-67zM488 255
l-156 407l-159 -407h315z" />
    <glyph glyph-name="yacute" unicode="&#xfd;" horiz-adv-x="500" 
d="M369 707l-127 -143h-44l91 143h80zM81 502l169 -420l168 420h65l-277 -694h-66l76 192l-208 502h73z" />
    <glyph glyph-name="Aacute" unicode="&#xc1;" horiz-adv-x="667" 
d="M453 927l-127 -143h-44l91 143h80zM9 0l286 722h76l288 -722h-71l-77 195h-359l-76 -195h-67zM488 255l-156 407l-159 -407h315z" />
    <glyph glyph-name="Ccedilla" unicode="&#xc7;" horiz-adv-x="667" 
d="M255 -133q22 -8 44 -14.5t45 -10.5q7 -1 21.5 2.5t20.5 8.5q8 8 10 14.5t2 17.5q0 21 -15.5 28.5t-32.5 7.5q-8 0 -16.5 -1l-16.5 -2l23 70q-74 6 -126.5 38.5t-86.5 83t-50 115.5t-16 136q0 74 18 142t56 120t96.5 83t140.5 31q44 0 85.5 -10.5t74.5 -33t54.5 -57
t25.5 -83.5h-70q-5 33 -20.5 56.5t-38.5 38.5t-51.5 22t-59.5 7q-69 0 -115.5 -28.5t-74.5 -74t-39.5 -102t-11.5 -111.5q0 -56 11.5 -112t39.5 -101.5t74.5 -74t115.5 -28.5q30 0 59 7.5t53 23.5t41.5 40.5t24.5 58.5h70q-8 -45 -31.5 -80.5t-57 -60t-75 -37t-84.5 -12.5
q-7 0 -9 1l-10 -36q19 0 37 -2t32 -9t23 -20.5t9 -35.5q0 -18 -9 -30.5t-22.5 -20.5t-30 -11.5t-31.5 -3.5q-19 0 -32.5 1.5t-25.5 4.5t-24.5 7t-30.5 9z" />
    <glyph glyph-name="ntilde" unicode="&#xf1;" 
d="M416 695q-8 -34 -30.5 -59.5t-60.5 -25.5q-11 0 -22 3t-23 8q-11 4 -24.5 7t-29.5 3q-15 0 -29 -7t-18 -22h-38q9 41 36.5 64t71.5 16q7 -1 18 -4t22 -7l22 -6t17 -3q17 0 30.5 8.5t19.5 24.5h38zM140 0h-60v389q0 29 -1.5 58t-3.5 55h62l3 -74l2 -2q26 47 67 69t90 22
q41 0 70 -11t48.5 -28.5t31.5 -40t18 -45t7.5 -43.5t1.5 -35v-314h-60v324q0 66 -35 102t-97 36q-37 0 -64 -14.5t-45 -38.5t-26.5 -55t-8.5 -65v-289z" />
    <glyph glyph-name="eth" unicode="&#xf0;" 
d="M109 237q0 -33 9.5 -68.5t29.5 -64.5t52.5 -48t77.5 -19t77.5 19t52.5 48t29.5 64.5t9.5 68.5t-9.5 69t-29.5 65t-52.5 48t-77.5 19t-77.5 -19t-52.5 -48t-29.5 -65t-9.5 -69zM172 737q23 -5 39.5 -9.5t30 -9.5t27 -11t30.5 -15l93 58l30 -28l-85 -53q24 -16 54 -44
t57 -75t45.5 -116t18.5 -166q0 -132 -60 -207.5t-174 -75.5q-60 0 -104 22t-73 57.5t-43 80.5t-14 92t14 92.5t42 81t70.5 57.5t99.5 22q43 0 74 -14.5t52 -34.5t33.5 -42t18.5 -38l2 2q-3 33 -13 71t-28.5 74.5t-48 70.5t-71.5 60l-93 -57l-29 29l83 51q-12 6 -21.5 10
l-19.5 8t-22.5 8t-31.5 9z" />
    <glyph glyph-name="Aring" unicode="&#xc5;" horiz-adv-x="667" 
d="M389 869q0 21 -17 38t-38 17t-38 -16.5t-17 -38.5q0 -20 17 -37.5t38 -17.5q20 0 37.5 17.5t17.5 37.5zM246 869q0 18 7 34t19 28t28 19t34 7t34 -7t28 -19t19 -28t7 -34t-7 -34t-19 -28t-28 -19t-34 -7t-34 7t-28 19t-19 28t-7 34zM9 0l286 722h76l288 -722h-71l-77 195
h-359l-76 -195h-67zM488 255l-156 407l-159 -407h315z" />
    <glyph glyph-name="mu" unicode="&#xb5;" 
d="M416 502h60v-389q0 -29 1.5 -58t3.5 -55h-62l-3 74l-2 2q-26 -47 -67 -69t-90 -22q-29 0 -58.5 7t-58.5 18v-202h-60v694h60v-324q0 -66 35 -102t97 -36q37 0 64 14.5t45 38.5t26.5 55t8.5 65v289z" />
    <glyph glyph-name="mu" unicode="&#x3bc;" 
d="M416 502h60v-389q0 -29 1.5 -58t3.5 -55h-62l-3 74l-2 2q-26 -47 -67 -69t-90 -22q-29 0 -58.5 7t-58.5 18v-202h-60v694h60v-324q0 -66 35 -102t97 -36q37 0 64 14.5t45 38.5t26.5 55t8.5 65v289z" />
    <glyph glyph-name="Ugrave" unicode="&#xd9;" horiz-adv-x="722" 
d="M322 927l91 -143h-44l-127 143h80zM162 722v-467q4 -99 56.5 -154.5t142.5 -55.5t142.5 55.5t56.5 154.5v467h65v-468q-1 -58 -17.5 -107.5t-49.5 -85.5t-82 -56t-115 -20t-115 20t-82 56t-49.5 85.5t-17.5 107.5v468h65z" />
    <glyph glyph-name="Egrave" unicode="&#xc8;" horiz-adv-x="611" 
d="M267 927l91 -143h-44l-127 143h80zM102 0v722h429v-60h-364v-259h350v-60h-350v-283h379v-60h-444z" />
    <glyph glyph-name="Scaron" unicode="&#x160;" horiz-adv-x="611" 
d="M342 782h-73l-99 145h47l89 -106l90 106h46zM553 190q0 -59 -23.5 -98.5t-62.5 -63t-89.5 -33.5t-104.5 -10q-43 0 -81.5 15t-68 42t-47 64t-18.5 82h70q1 -42 15.5 -69.5t39.5 -44t57.5 -23t68.5 -6.5q30 0 61 9t56 26t41 43t16 61q0 27 -9 47t-24.5 35t-36 25.5
t-43.5 18.5q-44 15 -95.5 31t-96 41t-74 63t-29.5 97q0 47 20 83.5t52.5 61t73.5 37.5t84 13q36 0 74.5 -7.5t72.5 -26.5t58 -52.5t30 -85.5h-70q-1 33 -15 55t-36.5 34.5t-50 17.5t-55.5 5t-58 -7.5t-54.5 -22.5t-40 -39t-15.5 -57q0 -51 30 -80.5t75.5 -49t98.5 -34.5
t98.5 -38t75.5 -60t30 -99z" />
    <glyph glyph-name="otilde" unicode="&#xf5;" 
d="M416 695q-8 -34 -30.5 -59.5t-60.5 -25.5q-11 0 -22 3t-23 8q-11 4 -24.5 7t-29.5 3q-15 0 -29 -7t-18 -22h-38q9 41 36.5 64t71.5 16q7 -1 18 -4t22 -7l22 -6t17 -3q17 0 30.5 8.5t19.5 24.5h38zM278 517q60 0 104 -23t73 -60.5t43 -85.5t14 -97q0 -50 -14 -97.5
t-43 -85t-73 -60.5t-104 -23t-104 23t-73 60.5t-43 85t-14 97.5q0 49 14 97t43 85.5t73 60.5t104 23zM447 251q0 35 -9.5 72.5t-29.5 68t-52.5 50.5t-77.5 20t-77.5 -20t-52.5 -50.5t-29.5 -68t-9.5 -72.5t9.5 -72.5t29.5 -68t52.5 -50.5t77.5 -20t77.5 20t52.5 50.5
t29.5 68t9.5 72.5z" />
    <glyph glyph-name="Ntilde" unicode="&#xd1;" horiz-adv-x="722" 
d="M499 915q-8 -34 -30.5 -59.5t-60.5 -25.5q-11 0 -22 3t-23 8q-11 4 -24.5 7t-29.5 3q-15 0 -29 -7t-18 -22h-38q9 41 36.5 64t71.5 16q7 -1 18 -4t22 -7l22 -6t17 -3q17 0 30.5 8.5t19.5 24.5h38zM92 722h74l398 -635h2v635h65v-722h-82l-390 624h-2v-624h-65v722z" />
    <glyph glyph-name="Uacute" unicode="&#xda;" horiz-adv-x="722" 
d="M480 927l-127 -143h-44l91 143h80zM162 722v-467q4 -99 56.5 -154.5t142.5 -55.5t142.5 55.5t56.5 154.5v467h65v-468q-1 -58 -17.5 -107.5t-49.5 -85.5t-82 -56t-115 -20t-115 20t-82 56t-49.5 85.5t-17.5 107.5v468h65z" />
    <glyph glyph-name="Acircumflex" unicode="&#xc2;" horiz-adv-x="667" 
d="M298 927h73l99 -145h-47l-89 106l-90 -106h-46zM9 0l286 722h76l288 -722h-71l-77 195h-359l-76 -195h-67zM488 255l-156 407l-159 -407h315z" />
    <glyph glyph-name="ocircumflex" unicode="&#xf4;" 
d="M242 707h73l99 -145h-47l-89 106l-90 -106h-46zM278 517q60 0 104 -23t73 -60.5t43 -85.5t14 -97q0 -50 -14 -97.5t-43 -85t-73 -60.5t-104 -23t-104 23t-73 60.5t-43 85t-14 97.5q0 49 14 97t43 85.5t73 60.5t104 23zM447 251q0 35 -9.5 72.5t-29.5 68t-52.5 50.5
t-77.5 20t-77.5 -20t-52.5 -50.5t-29.5 -68t-9.5 -72.5t9.5 -72.5t29.5 -68t52.5 -50.5t77.5 -20t77.5 20t52.5 50.5t29.5 68t9.5 72.5z" />
    <glyph glyph-name="ydieresis" unicode="&#xff;" horiz-adv-x="500" 
d="M126 619v88h74v-88h-74zM300 619v88h74v-88h-74zM81 502l169 -420l168 420h65l-277 -694h-66l76 192l-208 502h73z" />
    <glyph glyph-name="Eacute" unicode="&#xc9;" horiz-adv-x="611" 
d="M425 927l-127 -143h-44l91 143h80zM102 0v722h429v-60h-364v-259h350v-60h-350v-283h379v-60h-444z" />
    <glyph glyph-name="Ograve" unicode="&#xd2;" horiz-adv-x="778" 
d="M350 927l91 -143h-44l-127 143h80zM711 361q0 -84 -21 -153.5t-62 -119t-101 -76.5t-138 -27t-138 27t-101 76.5t-62 119t-21 153.5t21 153.5t62 119t101 76.5t138 27t138 -27t101 -76.5t62 -119t21 -153.5zM137 361q0 -59 14 -116t44.5 -101.5t78 -71.5t115.5 -27
q67 0 115 27t78.5 71.5t44.5 101.5t14 116t-14 116t-44.5 101.5t-78.5 71.5t-115 27q-68 0 -115.5 -27t-78 -71.5t-44.5 -101.5t-14 -116z" />
    <glyph glyph-name="acircumflex" unicode="&#xe2;" horiz-adv-x="500" 
d="M214 707h73l99 -145h-47l-89 106l-90 -106h-46zM364 354q-5 62 -35 85t-84 23q-24 0 -45 -4t-37.5 -14t-27 -27t-13.5 -42h-64q6 39 22.5 66t41 44t56.5 24.5t68 7.5q83 0 131 -40t47 -126v-238q-1 -29 1 -58t4 -55h-62l-2 74h-2l-3 -7q-8 -16 -24 -30.5t-37 -26
t-46 -18.5t-50 -7q-35 0 -65.5 10.5t-53 30.5t-35.5 48.5t-13 65.5q0 51 28 88.5t73 56.5q25 11 53.5 15.5t58 5.5t59 0.5t56.5 1.5v46zM101 140q0 -51 33.5 -75.5t79.5 -24.5q49 0 79.5 18.5t47 48.5t21 68.5t2.5 77.5q-32 -1 -77 -1t-86.5 -9t-70.5 -32.5t-29 -70.5z" />
    <glyph glyph-name="multiply" unicode="&#xd7;" horiz-adv-x="660" 
d="M117 6l-37 36l214 211l-214 211l37 38l214 -212l212 212l37 -38l-212 -211l212 -211l-37 -36l-212 210z" />
    <glyph glyph-name="divide" unicode="&#xf7;" horiz-adv-x="660" 
d="M293 414v88h75v-88h-75zM293 0v88h75v-88h-75zM80 281h500v-60h-500v60z" />
    <glyph glyph-name="ccedilla" unicode="&#xe7;" horiz-adv-x="500" 
d="M165 -133q22 -8 44 -14.5t45 -10.5q7 -1 21.5 2.5t20.5 8.5q8 8 10 14.5t2 17.5q0 21 -15.5 28.5t-32.5 7.5q-8 0 -16.5 -1l-16.5 -2l22 68q-52 3 -90.5 26.5t-63.5 60t-37 83t-12 95.5q0 51 14 99t42 85t70 59.5t98 22.5q39 0 73 -11.5t60 -33t41.5 -53t17.5 -71.5h-65
q-4 58 -39 86t-98 28q-35 0 -62.5 -17t-46.5 -45.5t-29.5 -66.5t-10.5 -81t10.5 -81.5t29.5 -67.5t46.5 -46t62.5 -17q59 0 96 32.5t41 84.5h65q-24 -169 -189 -171l-10 -36q19 0 37 -2t32 -9t23 -20.5t9 -35.5q0 -18 -9 -30.5t-22.5 -20.5t-30 -11.5t-31.5 -3.5
q-19 0 -32.5 1.5t-25.5 4.5t-24.5 7t-30.5 9z" />
    <glyph glyph-name="twosuperior" unicode="&#xb2;" horiz-adv-x="333" 
d="M33 283v41l36.5 31.5t47 44l49.5 51.5t44.5 53t32 50t12.5 43q0 28 -22.5 45t-58.5 17q-41 0 -65 -21.5t-24 -49.5h-48q0 28 10.5 50t29 37.5t44 23.5t54.5 8q27 0 51.5 -6.5t42.5 -20t29 -33.5t11 -47q0 -36 -24 -75.5t-56.5 -76.5t-65.5 -67.5t-50 -49.5h202v-48h-282z
" />
    <glyph glyph-name="ugrave" unicode="&#xf9;" 
d="M239 707l91 -143h-44l-127 143h80zM416 502h60v-389q0 -29 1.5 -58t3.5 -55h-62l-3 74l-2 2q-26 -47 -67 -69t-90 -22q-41 0 -70 11t-48.5 28.5t-31.5 40t-18 45t-7.5 43t-1.5 35.5v314h60v-324q0 -66 35 -102t97 -36q37 0 64 14.5t45 38.5t26.5 55t8.5 65v289z" />
    <glyph glyph-name="Agrave" unicode="&#xc0;" horiz-adv-x="667" 
d="M295 927l91 -143h-44l-127 143h80zM9 0l286 722h76l288 -722h-71l-77 195h-359l-76 -195h-67zM488 255l-156 407l-159 -407h315z" />
    <glyph glyph-name="Ucircumflex" unicode="&#xdb;" horiz-adv-x="722" 
d="M325 927h73l99 -145h-47l-89 106l-90 -106h-46zM162 722v-467q4 -99 56.5 -154.5t142.5 -55.5t142.5 55.5t56.5 154.5v467h65v-468q-1 -58 -17.5 -107.5t-49.5 -85.5t-82 -56t-115 -20t-115 20t-82 56t-49.5 85.5t-17.5 107.5v468h65z" />
    <glyph glyph-name="zcaron" unicode="&#x17e;" horiz-adv-x="444" 
d="M258 562h-73l-99 145h47l89 -106l90 106h46zM40 55l293 392h-293v55h364v-55l-291 -392h291v-55h-364v55z" />
    <glyph glyph-name="Ydieresis" unicode="&#x178;" horiz-adv-x="611" 
d="M182 839v88h74v-88h-74zM356 839v88h74v-88h-74zM274 312l-266 410h83l221 -349l221 349h70l-264 -408v-314h-65v312z" />
    <glyph glyph-name="Adieresis" unicode="&#xc4;" horiz-adv-x="667" 
d="M210 839v88h74v-88h-74zM384 839v88h74v-88h-74zM9 0l286 722h76l288 -722h-71l-77 195h-359l-76 -195h-67zM488 255l-156 407l-159 -407h315z" />
    <glyph glyph-name="Icircumflex" unicode="&#xce;" horiz-adv-x="278" 
d="M103 927h73l99 -145h-47l-89 106l-90 -106h-46zM107 0v725h65v-725h-65z" />
    <glyph glyph-name="idieresis" unicode="&#xef;" horiz-adv-x="222" 
d="M-13 619v88h74v-88h-74zM161 619v88h74v-88h-74zM81 0v502h60v-502h-60z" />
    <glyph glyph-name="Oacute" unicode="&#xd3;" horiz-adv-x="778" 
d="M508 927l-127 -143h-44l91 143h80zM711 361q0 -84 -21 -153.5t-62 -119t-101 -76.5t-138 -27t-138 27t-101 76.5t-62 119t-21 153.5t21 153.5t62 119t101 76.5t138 27t138 -27t101 -76.5t62 -119t21 -153.5zM137 361q0 -59 14 -116t44.5 -101.5t78 -71.5t115.5 -27
q67 0 115 27t78.5 71.5t44.5 101.5t14 116t-14 116t-44.5 101.5t-78.5 71.5t-115 27q-68 0 -115.5 -27t-78 -71.5t-44.5 -101.5t-14 -116z" />
    <glyph glyph-name="aring" unicode="&#xe5;" horiz-adv-x="500" 
d="M305 649q0 21 -17 38t-38 17t-38 -16.5t-17 -38.5q0 -20 17 -37.5t38 -17.5q20 0 37.5 17.5t17.5 37.5zM162 649q0 18 7 34t19 28t28 19t34 7t34 -7t28 -19t19 -28t7 -34t-7 -34t-19 -28t-28 -19t-34 -7t-34 7t-28 19t-19 28t-7 34zM364 354q-5 62 -35 85t-84 23
q-24 0 -45 -4t-37.5 -14t-27 -27t-13.5 -42h-64q6 39 22.5 66t41 44t56.5 24.5t68 7.5q83 0 131 -40t47 -126v-238q-1 -29 1 -58t4 -55h-62l-2 74h-2l-3 -7q-8 -16 -24 -30.5t-37 -26t-46 -18.5t-50 -7q-35 0 -65.5 10.5t-53 30.5t-35.5 48.5t-13 65.5q0 51 28 88.5t73 56.5
q25 11 53.5 15.5t58 5.5t59 0.5t56.5 1.5v46zM101 140q0 -51 33.5 -75.5t79.5 -24.5q49 0 79.5 18.5t47 48.5t21 68.5t2.5 77.5q-32 -1 -77 -1t-86.5 -9t-70.5 -32.5t-29 -70.5z" />
    <glyph glyph-name="Yacute" unicode="&#xdd;" horiz-adv-x="611" 
d="M425 927l-127 -143h-44l91 143h80zM274 312l-266 410h83l221 -349l221 349h70l-264 -408v-314h-65v312z" />
    <glyph glyph-name="trademark" unicode="&#x2122;" horiz-adv-x="940" 
d="M643 411h2l118 311h99v-421h-55v377h-2l-145 -377h-34l-145 377h-2v-377h-55v421h99zM349 682h-132v-381h-55v381h-133v40h320v-40z" />
    <glyph glyph-name="threesuperior" unicode="&#xb3;" horiz-adv-x="333" 
d="M146 524q22 -2 42.5 0.5t37 11.5t26.5 24t10 37q0 27 -25.5 44.5t-65.5 17.5q-43 0 -64 -17.5t-26 -44.5h-54q0 26 11.5 46.5t31 34.5t44.5 21.5t51 7.5q28 0 55.5 -6.5t48.5 -20t34 -34.5t13 -51q0 -38 -27 -62t-65 -32v-2q43 -8 71 -35t28 -69q0 -29 -13.5 -51
t-35.5 -37t-49.5 -22.5t-55.5 -7.5q-30 0 -56.5 7t-46.5 21.5t-32 36.5t-13 52h54q1 -30 27.5 -49.5t65.5 -19.5q45 0 73 19.5t28 55.5q0 24 -10.5 40t-28 25t-39.5 11.5t-45 -0.5v48z" />
    <glyph glyph-name="Zcaron" unicode="&#x17d;" 
d="M314 782h-73l-99 145h47l89 -106l90 106h46zM39 0v60l401 602h-401v60h478v-60l-402 -602h402v-60h-478z" />
    <glyph glyph-name="threequarters" unicode="&#xbe;" horiz-adv-x="834" 
d="M146 524q22 -2 42.5 0.5t37 11.5t26.5 24t10 37q0 27 -25.5 44.5t-65.5 17.5q-43 0 -64 -17.5t-26 -44.5h-54q0 26 11.5 46.5t31 34.5t44.5 21.5t51 7.5q28 0 55.5 -6.5t48.5 -20t34 -34.5t13 -51q0 -38 -27 -62t-65 -32v-2q43 -8 71 -35t28 -69q0 -29 -13.5 -51
t-35.5 -37t-49.5 -22.5t-55.5 -7.5q-30 0 -56.5 7t-46.5 21.5t-32 36.5t-13 52h54q1 -30 27.5 -49.5t65.5 -19.5q45 0 73 19.5t28 55.5q0 24 -10.5 40t-28 25t-39.5 11.5t-45 -0.5v48zM626 358h-2l-140 -213h142v213zM237 0h-55l417 707h53zM626 97h-212v31l201 287h62v-270
h63v-48h-63v-97h-51v97z" />
    <glyph glyph-name="Euro" unicode="&#x20ac;" 
d="M88 331v15v17q0 9 1 18h-60l17 56h49q7 54 26 103t50.5 86t76 59t103.5 22q55 0 99 -19.5t77 -64.5l-27 -88q-18 58 -59.5 85t-90.5 27q-44 0 -76.5 -18t-54.5 -47t-35 -67t-19 -78h306l-17 -56h-295q-1 -9 -1 -18v-17v-15h280l-17 -56h-259q5 -44 17.5 -85.5t34.5 -73.5
t55.5 -51.5t80.5 -19.5q48 0 84.5 23.5t67.5 61.5v-83q-31 -31 -70 -46.5t-81 -15.5q-62 0 -107.5 23t-77 62.5t-50 92.5t-24.5 112h-65l17 56h44z" />
    <glyph glyph-name="ograve" unicode="&#xf2;" 
d="M239 707l91 -143h-44l-127 143h80zM278 517q60 0 104 -23t73 -60.5t43 -85.5t14 -97q0 -50 -14 -97.5t-43 -85t-73 -60.5t-104 -23t-104 23t-73 60.5t-43 85t-14 97.5q0 49 14 97t43 85.5t73 60.5t104 23zM447 251q0 35 -9.5 72.5t-29.5 68t-52.5 50.5t-77.5 20
t-77.5 -20t-52.5 -50.5t-29.5 -68t-9.5 -72.5t9.5 -72.5t29.5 -68t52.5 -50.5t77.5 -20t77.5 20t52.5 50.5t29.5 68t9.5 72.5z" />
    <glyph glyph-name="udieresis" unicode="&#xfc;" 
d="M154 619v88h74v-88h-74zM328 619v88h74v-88h-74zM416 502h60v-389q0 -29 1.5 -58t3.5 -55h-62l-3 74l-2 2q-26 -47 -67 -69t-90 -22q-41 0 -70 11t-48.5 28.5t-31.5 40t-18 45t-7.5 43t-1.5 35.5v314h60v-324q0 -66 35 -102t97 -36q37 0 64 14.5t45 38.5t26.5 55t8.5 65
v289z" />
    <glyph glyph-name="edieresis" unicode="&#xeb;" 
d="M154 619v88h74v-88h-74zM328 619v88h74v-88h-74zM438 292q-3 36 -14 67.5t-31 54t-49.5 35.5t-68.5 13q-37 0 -65 -14t-47.5 -38t-31 -54.5t-14.5 -63.5h321zM115 237q1 -40 11 -76t31 -63t53.5 -42.5t78.5 -15.5q27 0 50.5 9t43 25t32.5 38t19 48h63q-23 -91 -79.5 -133
t-147.5 -42q-56 0 -97.5 22.5t-68.5 59.5t-40.5 85t-13.5 99t14 99t42 85t70 59.5t98 22.5q63 0 106.5 -21.5t71 -59.5t39.5 -89t12 -110h-388z" />
    <glyph glyph-name="plusminus" unicode="&#xb1;" horiz-adv-x="660" 
d="M80 60h500v-60h-500v60zM300 502h60v-172h220v-60h-220v-170h-60v170h-220v60h220v172z" />
    <glyph glyph-name="aacute" unicode="&#xe1;" horiz-adv-x="500" 
d="M369 707l-127 -143h-44l91 143h80zM364 354q-5 62 -35 85t-84 23q-24 0 -45 -4t-37.5 -14t-27 -27t-13.5 -42h-64q6 39 22.5 66t41 44t56.5 24.5t68 7.5q83 0 131 -40t47 -126v-238q-1 -29 1 -58t4 -55h-62l-2 74h-2l-3 -7q-8 -16 -24 -30.5t-37 -26t-46 -18.5t-50 -7
q-35 0 -65.5 10.5t-53 30.5t-35.5 48.5t-13 65.5q0 51 28 88.5t73 56.5q25 11 53.5 15.5t58 5.5t59 0.5t56.5 1.5v46zM101 140q0 -51 33.5 -75.5t79.5 -24.5q49 0 79.5 18.5t47 48.5t21 68.5t2.5 77.5q-32 -1 -77 -1t-86.5 -9t-70.5 -32.5t-29 -70.5z" />
    <glyph glyph-name="Idieresis" unicode="&#xcf;" horiz-adv-x="278" 
d="M15 839v88h74v-88h-74zM189 839v88h74v-88h-74zM107 0v725h65v-725h-65z" />
    <glyph glyph-name="igrave" unicode="&#xec;" horiz-adv-x="222" 
d="M72 707l91 -143h-44l-127 143h80zM81 0v502h60v-502h-60z" />
    <glyph glyph-name="Iacute" unicode="&#xcd;" horiz-adv-x="278" 
d="M258 927l-127 -143h-44l91 143h80zM107 0v725h65v-725h-65z" />
    <glyph glyph-name="copyright" unicode="&#xa9;" horiz-adv-x="800" 
d="M591 294q-3 -34 -18.5 -61t-39 -46t-53.5 -29t-62 -10q-47 0 -85.5 16.5t-65.5 46t-42 69t-15 85.5t14 85.5t40.5 68.5t64.5 45t86 16q68 0 117 -36.5t59 -105.5h-55q-8 40 -42 66t-78 26q-37 0 -64.5 -13.5t-45.5 -36t-27 -52.5t-9 -62q0 -31 9.5 -61t28 -54t46.5 -38.5
t64 -14.5q22 0 42 7t36 20t26.5 30.5t13.5 38.5h55zM84 362q0 -69 23.5 -127.5t66 -100.5t100.5 -65.5t127 -23.5t126.5 23.5t99.5 65.5t65.5 100.5t23.5 127.5t-23.5 126.5t-65.5 99.5t-99.5 65.5t-126.5 23.5t-127 -23.5t-100.5 -65.5t-66 -99.5t-23.5 -126.5zM401 -15
q-78 0 -146.5 29.5t-120 81t-81 120t-29.5 146.5q0 77 29.5 145.5t81 119.5t120 80.5t146.5 29.5t146 -29.5t119 -80.5t80.5 -119.5t29.5 -145.5q0 -78 -29.5 -146.5t-80.5 -120t-119 -81t-146 -29.5z" />
    <glyph glyph-name="adieresis" unicode="&#xe4;" horiz-adv-x="500" 
d="M126 619v88h74v-88h-74zM300 619v88h74v-88h-74zM364 354q-5 62 -35 85t-84 23q-24 0 -45 -4t-37.5 -14t-27 -27t-13.5 -42h-64q6 39 22.5 66t41 44t56.5 24.5t68 7.5q83 0 131 -40t47 -126v-238q-1 -29 1 -58t4 -55h-62l-2 74h-2l-3 -7q-8 -16 -24 -30.5t-37 -26
t-46 -18.5t-50 -7q-35 0 -65.5 10.5t-53 30.5t-35.5 48.5t-13 65.5q0 51 28 88.5t73 56.5q25 11 53.5 15.5t58 5.5t59 0.5t56.5 1.5v46zM101 140q0 -51 33.5 -75.5t79.5 -24.5q49 0 79.5 18.5t47 48.5t21 68.5t2.5 77.5q-32 -1 -77 -1t-86.5 -9t-70.5 -32.5t-29 -70.5z" />
    <glyph glyph-name="agrave" unicode="&#xe0;" horiz-adv-x="500" 
d="M211 707l91 -143h-44l-127 143h80zM364 354q-5 62 -35 85t-84 23q-24 0 -45 -4t-37.5 -14t-27 -27t-13.5 -42h-64q6 39 22.5 66t41 44t56.5 24.5t68 7.5q83 0 131 -40t47 -126v-238q-1 -29 1 -58t4 -55h-62l-2 74h-2l-3 -7q-8 -16 -24 -30.5t-37 -26t-46 -18.5t-50 -7
q-35 0 -65.5 10.5t-53 30.5t-35.5 48.5t-13 65.5q0 51 28 88.5t73 56.5q25 11 53.5 15.5t58 5.5t59 0.5t56.5 1.5v46zM101 140q0 -51 33.5 -75.5t79.5 -24.5q49 0 79.5 18.5t47 48.5t21 68.5t2.5 77.5q-32 -1 -77 -1t-86.5 -9t-70.5 -32.5t-29 -70.5z" />
    <glyph glyph-name="scaron" unicode="&#x161;" horiz-adv-x="500" 
d="M286 562h-73l-99 145h47l89 -106l90 106h46zM63 377q0 39 16.5 65.5t42.5 43t59 24t66 7.5q36 0 67.5 -7t56.5 -23t40.5 -42.5t18.5 -66.5h-65q-2 24 -13 40t-28 25.5t-38.5 14t-44.5 4.5q-21 0 -41.5 -4.5t-36 -14t-25.5 -25t-10 -37.5q0 -28 17.5 -42.5t48 -24.5
t73.5 -20t94 -28q39 -14 62 -45t23 -72q0 -42 -18 -73t-47.5 -51.5t-67.5 -30t-78 -9.5q-33 0 -66 8t-60 26t-44.5 47t-18.5 71h65q2 -28 14.5 -46.5t31.5 -30t43 -16t50 -4.5q24 0 47.5 6t42 18t30 31t11.5 45q0 27 -13.5 44t-36 27.5t-51 17l-58.5 13.5t-58.5 16t-51 24
t-36 37.5t-13.5 57.5z" />
    <glyph glyph-name="Igrave" unicode="&#xcc;" horiz-adv-x="278" 
d="M100 927l91 -143h-44l-127 143h80zM107 0v725h65v-725h-65z" />
    <glyph glyph-name="Ocircumflex" unicode="&#xd4;" horiz-adv-x="778" 
d="M353 927h73l99 -145h-47l-89 106l-90 -106h-46zM711 361q0 -84 -21 -153.5t-62 -119t-101 -76.5t-138 -27t-138 27t-101 76.5t-62 119t-21 153.5t21 153.5t62 119t101 76.5t138 27t138 -27t101 -76.5t62 -119t21 -153.5zM137 361q0 -59 14 -116t44.5 -101.5t78 -71.5
t115.5 -27q67 0 115 27t78.5 71.5t44.5 101.5t14 116t-14 116t-44.5 101.5t-78.5 71.5t-115 27q-68 0 -115.5 -27t-78 -71.5t-44.5 -101.5t-14 -116z" />
    <glyph glyph-name="Thorn" unicode="&#xde;" horiz-adv-x="611" 
d="M100 722h65v-155h143q50 0 98.5 -7.5t86 -30t60.5 -62.5t23 -104q0 -65 -23 -104.5t-60.5 -62t-86 -30t-98.5 -7.5h-143v-159h-65v722zM165 219h158q36 0 69.5 6.5t58.5 23t40 44.5t15 70t-15 70t-40 44.5t-58.5 23t-69.5 6.5h-158v-288z" />
    <glyph glyph-name="egrave" unicode="&#xe8;" 
d="M239 707l91 -143h-44l-127 143h80zM438 292q-3 36 -14 67.5t-31 54t-49.5 35.5t-68.5 13q-37 0 -65 -14t-47.5 -38t-31 -54.5t-14.5 -63.5h321zM115 237q1 -40 11 -76t31 -63t53.5 -42.5t78.5 -15.5q27 0 50.5 9t43 25t32.5 38t19 48h63q-23 -91 -79.5 -133t-147.5 -42
q-56 0 -97.5 22.5t-68.5 59.5t-40.5 85t-13.5 99t14 99t42 85t70 59.5t98 22.5q63 0 106.5 -21.5t71 -59.5t39.5 -89t12 -110h-388z" />
    <glyph glyph-name="atilde" unicode="&#xe3;" horiz-adv-x="500" 
d="M388 695q-8 -34 -30.5 -59.5t-60.5 -25.5q-11 0 -22 3t-23 8q-11 4 -24.5 7t-29.5 3q-15 0 -29 -7t-18 -22h-38q9 41 36.5 64t71.5 16q7 -1 18 -4t22 -7l22 -6t17 -3q17 0 30.5 8.5t19.5 24.5h38zM364 354q-5 62 -35 85t-84 23q-24 0 -45 -4t-37.5 -14t-27 -27t-13.5 -42
h-64q6 39 22.5 66t41 44t56.5 24.5t68 7.5q83 0 131 -40t47 -126v-238q-1 -29 1 -58t4 -55h-62l-2 74h-2l-3 -7q-8 -16 -24 -30.5t-37 -26t-46 -18.5t-50 -7q-35 0 -65.5 10.5t-53 30.5t-35.5 48.5t-13 65.5q0 51 28 88.5t73 56.5q25 11 53.5 15.5t58 5.5t59 0.5t56.5 1.5
v46zM101 140q0 -51 33.5 -75.5t79.5 -24.5q49 0 79.5 18.5t47 48.5t21 68.5t2.5 77.5q-32 -1 -77 -1t-86.5 -9t-70.5 -32.5t-29 -70.5z" />
    <glyph glyph-name="Udieresis" unicode="&#xdc;" horiz-adv-x="722" 
d="M237 839v88h74v-88h-74zM411 839v88h74v-88h-74zM162 722v-467q4 -99 56.5 -154.5t142.5 -55.5t142.5 55.5t56.5 154.5v467h65v-468q-1 -58 -17.5 -107.5t-49.5 -85.5t-82 -56t-115 -20t-115 20t-82 56t-49.5 85.5t-17.5 107.5v468h65z" />
    <glyph glyph-name="ecircumflex" unicode="&#xea;" 
d="M242 707h73l99 -145h-47l-89 106l-90 -106h-46zM438 292q-3 36 -14 67.5t-31 54t-49.5 35.5t-68.5 13q-37 0 -65 -14t-47.5 -38t-31 -54.5t-14.5 -63.5h321zM115 237q1 -40 11 -76t31 -63t53.5 -42.5t78.5 -15.5q27 0 50.5 9t43 25t32.5 38t19 48h63q-23 -91 -79.5 -133
t-147.5 -42q-56 0 -97.5 22.5t-68.5 59.5t-40.5 85t-13.5 99t14 99t42 85t70 59.5t98 22.5q63 0 106.5 -21.5t71 -59.5t39.5 -89t12 -110h-388z" />
    <glyph glyph-name="nonbreakingspace" horiz-adv-x="278" 
 />
    <glyph glyph-name="hyphenminus" horiz-adv-x="278" 
d="M13 297h252v-60h-252v60z" />
    <glyph glyph-name="space" unicode=" " horiz-adv-x="278" 
 />
    <glyph glyph-name="space" unicode="&#xa0;" horiz-adv-x="278" 
 />
    <glyph glyph-name=".null" horiz-adv-x="0" 
 />
    <glyph glyph-name=".null" unicode="&#xffe6;" horiz-adv-x="0" 
 />
    <glyph glyph-name="nonmarkingreturn" horiz-adv-x="278" 
 />
    </font>
</defs>
</svg>
